Ссылка на приватное зеркало всего за 1$. Внимание количество ограничено!!!

OK

1+1

iTunes

мы

OK

1

WEB-DLRip

Джокер

Пифагор

Ведьмак / The Witcher сериал

iTunes

ПШазам

ОК

Оно 2

iTunes

30
pack

Вам бонус

ВАЖНО

!!Акция!!

Alien_RageХит недели

RePack

Resident Evil 21

ИГРА 18+

pack

RePack

jed

RePack

fifa19

RePack

Assassins Creed: Odyssey

RePack

NEED FOR SPEED™ PAYBACK

4 сезон

9 сезон

Бесстыжие 9 сезон

Все сериалы

все сериалы на PB.wtf

RePack

FAR CRY 5
  

Конец тура / The End of the Tour (Джеймс Понсольдт) [2015 г., драма, HDRip, Профессиональный многоголосый закадровый "iTunes"] pb.wtf

Конец тура через торрент pb.wtf

Размер: 2.14 GB | Добавлен: 4 года назад | Торрент скачан:116 раз
Скачать  

25-01-2016 18:05 Конец тура Скачать торрент  

Конец тура / The End of the Tour
Год выпуска: 2015
Страна: США / Modern Man Films, Anonymous Content, Kilburn Media
Жанр: драма
Продолжительность: 01:46:10
Перевод: Профессиональный многоголосый закадровый (iTunes)

Режиссер: Джеймс Понсольдт

IMDB 7.50 (9373)


В ролях: Анна Кламски, Джесси Айзенберг, Джейсон Сигел, Мэми Гаммер, Джоан Кьюсак, Рон Ливингстон, Мики Самнер, Бекки Энн Бэйкер, Пуннавит Кой, Ноэль Флетчер

Описание: Вскоре после публикации романа «Бесконечная шутка» (позднее вошедшим в список ста лучших романов XX века по мнению Time) писатель Дэвид Фостер Уоллес отправляется в поездку с журналистом Rolling Stone Дэвидом Липски, готовящем о нем статью. За пять дней между ними возникла некая доверительная связь, позволившая каждому из них поделиться своими сокровенными мыслями и желаниями. Так или иначе, интервью никогда не было опубликовано — аудиокассеты отправились в шкаф Липски, а сами герои так больше и не встретились.

Качество: HDRip
Формат: AVI
Видео кодек: XviD
Аудио кодек: AC3
Видео: 720x304 (2.37:1), 23.976 fps, XviD build 50 ~2497 kbps avg, 0.48 bit/pixel
Аудио: 48 kHz, AC3 Dolby Digital, 3/2 (L,C,R,l,r) + LFE ch, ~384 kbps
скриншот   скриншот   скриншот   скриншот   скриншот   скриншот  

Общее
Полное имя : F:\кино\Конец тура.2015.HDRip.avi
Формат : AVI
Формат/Информация : Audio Video Interleave
Профиль формата : OpenDML
Размер файла : 2,14 Гбайт
Продолжительность : 1 ч. 46 м.
Общий поток : 2888 Кбит/сек
Программа кодирования : VirtualDubMod 1.5.10.3 | www.virtualdub-fr.org || (build 2550/release)
Библиотека кодирования : VirtualDubMod build 2550/release

Видео
Идентификатор : 0
Формат : MPEG-4 Visual
Профиль формата : Advanced Simple@L5
Параметр BVOP формата : 2
Параметр QPel формата : Нет
Параметр GMC формата : Без точки перехода
Параметр матрицы формата : Default (MPEG)
Идентификатор кодека : XVID
Идентификатор кодека/Подсказка : XviD
Продолжительность : 1 ч. 46 м.
Битрейт : 2493 Кбит/сек
Ширина : 720 пикселей
Высота : 304 пикселя
Соотношение сторон : 2,35:1
Частота кадров : 23,976 (23976/1000) кадра/сек
Цветовое пространство : YUV
Субдискретизация насыщенности : 4:2:0
Битовая глубина : 8 бит
Тип развёртки : Прогрессивная
Метод сжатия : С потерями
Бит/(Пиксели*Кадры) : 0.475
Размер потока : 1,85 Гбайт (86%)
Библиотека кодирования : XviD 1.2.1 (UTC 2008-12-04)

Аудио
Идентификатор : 1
Формат : AC-3
Формат/Информация : Audio Coding 3
Расширение режима : CM (complete main)
Параметр Endianness формата : Big
Идентификатор кодека : 2000
Продолжительность : 1 ч. 46 м.
Вид битрейта : Постоянный
Битрейт : 384 Кбит/сек
Каналы : 6 каналов
Расположение каналов : Front: L C R, Side: L R, LFE
Частота : 48,0 КГц
Частота кадров : 31,250 кадров/сек (1536 spf)
Метод сжатия : С потерями
Размер потока : 292 Мбайт (13%)
Выравнивание : Разделение по промежуткам
Продолжительность промежутка : 42 мс. (1,00 видеокадр)
Время предзагрузки промежутка : 500 мс.

pb.wtf



Скачать Конец тура через торрент http://pic.kartinco.top/images/11/1kqyd.jpg Скачать фильм Конец тура через торрент бесплантно в хорошем качестве Описание: Вскоре после публикации романа «Бесконечная шутка» (позднее вошедшим в список ста лучших романов XX века по мнению Time) писатель ... 6.2 10 6
Торрент: Зарегистрирован [2016-01-25 18:05] · скачан: 116 раз
Статус: √ проверено
Размер: 2.14 GB
Как cкачать? Как скачать Конец тура через торрент | qTorrent

% Раздел Тема Автор DL S | L
Фильмы 2015 [DVDrip, WEB-DLRip, HDrip] [ 1.41 GB ] Конец тура / The End of the Tour [2015 BDRip-AVC от sokol_ok] MVO sokol_ok Скачать
2 | 0
Фильмы [HD 720p, 1080p] (Хороший звук DUB, MVO) [ 14.38 GB ] Конец тура / The End of the Tour [2015 BDRip 1080p от _denis_100 / NNNB] 3xMVO _denis_100 Скачать
1 | 0
Фильмы 2015 [DVDrip, WEB-DLRip, HDrip] [ 2.13 GB ] Конец тура / The End of the Tour [2015 BDRip-AVC от sokol_ok] MVO sokol_ok Скачать
2 | 0
Фильмы 2015 [DVDrip, WEB-DLRip, HDrip] [ 2.13 GB ] Конец тура / The End of the Tour [2015 BDRip-AVC] MVO potroks Скачать
1 | 0
Фильмы 2015 [DVDrip, WEB-DLRip, HDrip] [ 1.37 GB ] Конец тура / The End of the Tour [2015 HDRip MVO Ворон Скачать
1 | 0

28-11-2019 20:33  

Отключить всю рекламу на сайте

25-01-2016 21:15 Конец тура Скачать торрент  

Что молчим? как фильм? pb.wtf



    Дорогой пользователь! Огромная просьба, поблагодарите релизера, оцените раздачу и оставьте свои комментарий, если Вы скачали Конец тура через торрент бесплатно! Внесите свою лепту в развитие PiratBit!
    Комментировать посты могут только пользователи прошедшие не сложную регистрацию
    Показать сообщения:    

    Конец тура через торрент
    Скачать бесплатно Конец тура
    Конец тура скачать торрент
    Конец тура смотреть онлайн
    Cкачать фильм Конец тура бесплатно
    Конец тура скачать торрент в хорошем качестве
    Конец тура смотреть онлайн бесплатно в хорошем качестве


    Вы не можете начинать темы
    Вы не можете отвечать на сообщения
    Вы не можете редактировать свои сообщения
    Вы не можете удалять свои сообщения
    Вы не можете голосовать в опросах
    Вы не можете прикреплять файлы к сообщениям
    Вы можете скачивать файлы