Ссылка на приватное зеркало нашего сайта всего за 1$. Внимание количество ограничено!!!

2 сезон

iTunes

1 сезон

1

2 сезон

2 сезон

iTunes

1 сезон

RePack

30

Ultimate

ВАЖНО

ИГРА 18+

pack

RePack

MK11
pack

Забери бонус

RePack

jed

!!Акция!!

Alien_Rage

RePack

fifa19

RePack

Assassins Creed: Odyssey

RePack

NEED FOR SPEED™ PAYBACK

4 сезон

9 сезон

Бесстыжие 9 сезон

Все сериалы

все сериалы на PB.wtf

RePack

FAR CRY 5
  

Секретные материалы / The X-Files / Сезон: 10 / Серии 1-6 из 6 (Крис Картер / Chris Carter, Дэрин Морган / Darin Morgan, Глен Морган / Glen Morgan) [2016, США, фантастика, триллер, драма, WEB-DLRip] MVO [студия "Кравец"] pb.wtf

Секретные материалы через торрент pb.wtf

Размер: 4.38 GB | Добавлен: 4 года 9 мес. назад | Торрент скачан:154 раза
Скачать  

26-01-2016 00:59 Секретные материалы Скачать торрент  

Секретные материалы / The X-Files
«Истина все еще где то рядом»


  • Год выпуска: 2016
  • Страна: США
  • Жанр: фантастика, триллер, драма, детектив
  • Продолжительность: 00:43:56 (Серия)
  • Перевод: Профессиональный многоголосый закадровый [студия "Кравец"]

  • Режиссер: Крис Картер / Chris Carter, Дэрин Морган / Darin Morgan, Глен Морган / Glen Morgan
  • В ролях:

    Дэвид Духовны (Fox Mulder), Джиллиан Андерсон (Dana Scully), Митч Пилледжи (Walter Skinner), Уильям Б. Дэвис (Smoking Man), Робби Амелл (Agent Miller), Джоэл МакХэйл (Tad O'Malley), Эндрю Моргадо (Charlie Scully), Лорен Эмброуз (Agent Einstein), Гардинер Миллар (Man in Suit), Ализа Веллани (Sandeep), Даниэла Диб (Mulders Dance Partner), Шейла Ларкен (Margaret Scully)


  • Специальные агенты ФБР, Фокс Малдер и Дана Скалли, снова работают вместе, чтобы расследовать странные и необъяснимые дела, связанные с паранормальными явлениями.
  • Рейтинг:



  • Качество: WEB-DLRip
  • Формат: :AVI
  • Видео кодек: XviD
  • Аудио кодек: AC3
  • Видео: 720x400 (16:9), 1993 kbps, 23,976 fps, 0,289 bpp
  • Аудио №1: Русский 2.0 / 48 kHz / 192 kbps / 16 bit
  • Аудио №2: Английский 2.0 / 48 kHz / 192 kbps / 16 bit
  • Релиз от: GEKADOL

    Код:

    Внимание! Раздача ведётся путём добавления новых серий; при каждом добавлении создаётся новый торрент. Чтобы начать докачку новой серии, пользователям необходимо сделать следующее:
    (1) остановить скачивание,
    (2) удалить старый торрент у себя из клиента (старые серии удалять не надо),
    (3) скачать новый торрент и запустить его у себя в клиенте вместо старого, при этом указать клиенту путь в старую папку куда и должно происходить скачивание новых серий.
    Ваш клиент при этом должен произвести хеширование (проверку) старой папки (если не производит сам - помогите ему сделать это), и будет докачивать только те серии которых у вас ещё нет. Старые серии при этом не удаляются, а продолжают раздаваться!
    Eсли вы уже удалили старые серии, то предотвратить повторную закачку старых серий можно, отжав галочку в соответствующих местах при запуске нового торрента. По возможности, желательно не удалять старые серии как можно дольше чтобы релизёр не столько продолжал раздавать старые серии, а смог сконцентрироваться на новых.


    Код:

    General
    Complete name                            : H:\The X-Files (Season 10) Kravec\The.XFiles.S10E01..WEB-DLRiP.Rus.MVO.Eng.avi
    Format                                   : AVI
    Format/Info                              : Audio Video Interleave
    File size                                : 752 MiB
    Duration                                 : 43mn 56s
    Overall bit rate                         : 2 392 Kbps
    Director                                 : whip93
    Writing application                      : VirtualDubMod 1.5.10.3 | www.virtualdub-fr.org || (build 2550/release)
    Writing library                          : VirtualDubMod build 2550/release
    Copyright                                : CasStudio.TV

    Video
    ID                                       : 0
    Format                                   : MPEG-4 Visual
    Format profile                           : Advanced Simple@L5
    Format settings, BVOP                    : 1
    Format settings, QPel                    : No
    Format settings, GMC                     : No warppoints
    Format settings, Matrix                  : Default (MPEG)
    Codec ID                                 : XVID
    Codec ID/Hint                            : XviD
    Duration                                 : 43mn 56s
    Bit rate                                 : 1 993 Kbps
    Width                                    : 720 pixels
    Height                                   : 400 pixels
    Display aspect ratio                     : 16:9
    Frame rate                               : 23.976 fps
    Color space                              : YUV
    Chroma subsampling                       : 4:2:0
    Bit depth                                : 8 bits
    Scan type                                : Progressive
    Compression mode                         : Lossy
    Bits/(Pixel*Frame)                       : 0.289
    Stream size                              : 627 MiB (83%)
    Writing library                          : XviD 67

    Audio #1
    ID                                       : 1
    Format                                   : AC-3
    Format/Info                              : Audio Coding 3
    Mode extension                           : CM (complete main)
    Codec ID                                 : 2000
    Duration                                 : 43mn 56s
    Bit rate mode                            : Constant
    Bit rate                                 : 192 Kbps
    Channel(s)                               : 2 channels
    Channel positions                        : Front: L R
    Sampling rate                            : 48.0 KHz
    Bit depth                                : 16 bits
    Compression mode                         : Lossy
    Stream size                              : 60.4 MiB (8%)
    Alignment                                : Split accross interleaves
    Interleave, duration                     : 42 ms (1.00 video frame)
    Interleave, preload duration             : 500 ms

    Audio #2
    ID                                       : 2
    Format                                   : AC-3
    Format/Info                              : Audio Coding 3
    Mode extension                           : CM (complete main)
    Codec ID                                 : 2000
    Duration                                 : 43mn 56s
    Bit rate mode                            : Constant
    Bit rate                                 : 192 Kbps
    Channel(s)                               : 2 channels
    Channel positions                        : Front: L R
    Sampling rate                            : 48.0 KHz
    Bit depth                                : 16 bits
    Compression mode                         : Lossy
    Stream size                              : 60.4 MiB (8%)
    Alignment                                : Split accross interleaves
    Interleave, duration                     : 42 ms (1.00 video frame)
    Interleave, preload duration             : 500 ms






    Скриншоты:
    скриншот   скриншот   скриншот   скриншот   скриншот   скриншот  
    скриншот  

    Раздача ведётся путём добавления новых серий. Добавлена 6 серия (24.02.2016).Просьба перекачать торрент файл.

    pb.wtf



  • Скачать Секретные материалы через торрент http://i65.fastpic.ru/big/2016/0126/5a/5d66e6f161787c71fd753326f286825a.jpg Скачать фильм Секретные материалы через торрент бесплантно в хорошем качестве qw.png Специальные агенты ФБР, Фокс Малдер и Дана Скалли, снова работают вместе, чтобы расследовать странные и необъяснимые дела, ... 9.8 10 17
    Info! Золотая раздача, скачанное не засчитывается.
    Торрент: Зарегистрирован [2016-02-24 00:51] · скачан: 154 раз
    Статус: √ проверено
    Размер: 4.38 GB
    Как cкачать? Как скачать Секретные материалы через торрент | qTorrent

    % Раздел Тема Автор DL S | L
    Зарубежные сериалы [ 22.88 GB ] Секретные материалы / The X-Files / Сезон 11 / Серия 1-6 из 10 [2018 WEB-DL 1080p] [MVO] killermax2013 Скачать
    1 | 0
    Зарубежные сериалы [ 5.25 GB ] Секретные материалы / The X-Files / Сезон: 10 / Серии 1-6 из 6 [2016 WEB-DLRip-AVC] MVO [BaibaKo] GEKADOL Скачать
    1 | 0
    Зарубежные сериалы [ 2.96 GB ] Секретные материалы / The X-Files / Сезон: 10 / Серии: 1-3 из 6 [2016 WEBRip 720p] DVO [Кубик в Кубе] + Original Messa-fan Скачать
    1 | 0
    R.G.Resident - Сериалы, Видео [ 4.17 GB ] Секретные материалы / The X-Files / Сезон: 10 / Серии 1 - 6 из 6 [2016 WEB-DLRip-AVC] MVO [Кравец] R.G.Resident schultz Скачать
    1 | 0
    Зарубежные сериалы [ 2.65 GB ] Секретные материалы / The X-Files / Сезон: 10 / Серии 1-2 из 6 [2015 WEB-DL 720p] MVO [студия "Кравец"] GEKADOL Скачать
    1 | 0
    Зарубежные сериалы [ 9.8 GB ] Секретные материалы / The X-Files / Сезон: 10 / Серии 1-6 из 6 [2016 WEB-DL 1080p] MVO [студия "Кравец"] GEKADOL Скачать
    1 | 0

    28-11-2019 20:33  

    Отключить всю рекламу на сайте

      Дорогой пользователь! Огромная просьба, поблагодарите релизера, оцените раздачу и оставьте свои комментарий, если Вы скачали Секретные материалы через торрент бесплатно! Внесите свою лепту в развитие PiratBit!
      Комментировать посты могут только пользователи прошедшие не сложную регистрацию
      Показать сообщения:    

      Секретные материалы через торрент
      Скачать бесплатно Секретные материалы
      Секретные материалы скачать торрент
      Секретные материалы смотреть онлайн
      Cкачать фильм Секретные материалы бесплатно
      Секретные материалы скачать торрент в хорошем качестве
      Секретные материалы смотреть онлайн бесплатно в хорошем качестве


      Вы не можете начинать темы
      Вы не можете отвечать на сообщения
      Вы не можете редактировать свои сообщения
      Вы не можете удалять свои сообщения
      Вы не можете голосовать в опросах
      Вы не можете прикреплять файлы к сообщениям
      Вы можете скачивать файлы