Ссылка на приватное зеркало нашего сайта всего за 1$. Внимание количество ограничено!!!

2 сезон

iTunes

1 сезон

1

2 сезон

2 сезон

iTunes

1 сезон

RePack

30

Ultimate

ВАЖНО

ИГРА 18+

pack

RePack

MK11
pack

Забери бонус

RePack

jed

!!Акция!!

Alien_Rage

RePack

fifa19

RePack

Assassins Creed: Odyssey

RePack

NEED FOR SPEED™ PAYBACK

4 сезон

9 сезон

Бесстыжие 9 сезон

Все сериалы

все сериалы на PB.wtf

RePack

FAR CRY 5
  

Американская семейка / Modern Family / Сезон: 5 / Серии: 1-24 из 24 (Майкл Спиллер, Джейсон Уайнер) [2013, Комедия, WEB-DLRip] Dub (Paramount Comedy) + Original pb.wtf

Американская семейка через торрент pb.wtf

Размер: 5.01 GB | Добавлен: 4 года 10 мес. назад | Торрент скачан:101 раз
Скачать  

26-01-2016 09:38 Американская семейка Скачать торрент  

Американская семейка / Modern FamilyПЯТЫЙ СЕЗОН!
Год выпуска: 2013
Страна: США
Жанр: Комедия
Серии: 1-24 из 24
Продолжительность: ~00:22:00 серия
Перевод: Профессиональный (дублированный) Paramount Comedy
Cубтитры: нет
Режиссёр: Майкл Спиллер, Джейсон Уайнер
В ролях: Эд О’Нил, Джули Боуэн, Ти Баррелл, София Вергара, Джесси Тайлер Фергюсон, Эрик Стоунстрит, Сара Хайланд, Нолан Гоулд, Эриель Винтер, Рико Родригез и др.
Описание: Современная американская семья: Джей Притчетт познакомился со сногсшибательной колумбийкой Глорией, когда она в бикини подавала ему коктейли на вечеринке, которую он устроил в день ухода егo первой жены. Теперь Джей и Глория женаты, и Джей изо всех сил старается не отставать от молодой красотки-жены и ее сына-подростка. В семье Клэр Данфи тоже не все гладко. Ее муж Фил — просто замечательный, но он считает, что «свой в доску» для своих детей, чем их сильно смущает. Митчелл Притчетт и его партнер Камерон только что удочерили Лили, очаровательного младенца из Вьетнама.

Качество: WEB-DLRip
Формат: AVI
Видео кодек: XviD
Аудио кодек: MP3
Видео: 720x400 (1.80:1), 23.976 fps, XviD build 64 ~1109 kbps avg, 0.16 bit/pixel
Аудио #1: 48 kHz, MPEG Layer 3, 2 ch, ~128.00 kbps avg | Paramount Comedy |
Аудио #2: 48 kHz, MPEG Layer 3, 2 ch, ~128.00 kbps avg | Оригинал |
General
Complete name : C:\Users\Администратор\Desktop\Раздачи\Modern Family Seasons 5 Paramount Comedy\modern.family.s05e01.web-dlrip.rus.eng.paramount.comedy.avi
Format : AVI
Format/Info : Audio Video Interleave
File size : 214 MiB
Duration : 21mn 38s
Overall bit rate : 1 381 Kbps
Writing application : VirtualDubMod 1.5.10.3 | www.virtualdub-fr.org || (build 2550/release)
Writing library : VirtualDubMod build 2550/release

Video
ID : 0
Format : MPEG-4 Visual
Format profile : Advanced Simple@L5
Format settings, BVOP : 2
Format settings, QPel : No
Format settings, GMC : No warppoints
Format settings, Matrix : Default (H.263)
Codec ID : XVID
Codec ID/Hint : XviD
Duration : 21mn 38s
Bit rate : 1 111 Kbps
Width : 720 pixels
Height : 400 pixels
Display aspect ratio : 16:9
Frame rate : 23.976 fps
Color space : YUV
Chroma subsampling : 4:2:0
Bit depth : 8 bits
Scan type : Progressive
Compression mode : Lossy
Bits/(Pixel*Frame) : 0.161
Stream size : 172 MiB (80%)
Writing library : XviD 64

Audio #1
ID : 1
Format : MPEG Audio
Format version : Version 1
Format profile : Layer 3
Mode : Joint stereo
Mode extension : MS Stereo
Codec ID : 55
Codec ID/Hint : MP3
Duration : 21mn 38s
Bit rate mode : Constant
Bit rate : 128 Kbps
Channel(s) : 2 channels
Sampling rate : 48.0 KHz
Compression mode : Lossy
Stream size : 19.8 MiB (9%)
Alignment : Aligned on interleaves
Interleave, duration : 42 ms (1.00 video frame)
Interleave, preload duration : 504 ms

Audio #2
ID : 2
Format : MPEG Audio
Format version : Version 1
Format profile : Layer 3
Mode : Joint stereo
Mode extension : MS Stereo
Codec ID : 55
Codec ID/Hint : MP3
Duration : 21mn 38s
Bit rate mode : Constant
Bit rate : 128 Kbps
Channel(s) : 2 channels
Sampling rate : 48.0 KHz
Compression mode : Lossy
Stream size : 19.8 MiB (9%)
Alignment : Aligned on interleaves
Interleave, duration : 42 ms (1.00 video frame)
Interleave, preload duration : 504 ms
Writing library : LAME3.99r
Encoding settings : -m j -V 4 -q 0 -lowpass 17 -b 128
pb.wtf



Скачать Американская семейка через торрент http://i63.fastpic.ru/big/2014/1016/47/047de0e562c67a05d7cae5603e017e47.jpg Скачать фильм Американская семейка через торрент бесплантно в хорошем качестве Описание: Современная американская семья: Джей Притчетт познакомился со сногсшибательной колумбийкой Глорией, когда она в бикини подавала ... 8.5 10 4
Торрент: Зарегистрирован [2016-01-26 09:38] · скачан: 101 раз
Статус: √ проверено
Размер: 5.01 GB
Как cкачать? Как скачать Американская семейка через торрент | qTorrent

28-11-2019 20:33  

Отключить всю рекламу на сайте

    Дорогой пользователь! Огромная просьба, поблагодарите релизера, оцените раздачу и оставьте свои комментарий, если Вы скачали Американская семейка через торрент бесплатно! Внесите свою лепту в развитие PiratBit!
    Комментировать посты могут только пользователи прошедшие не сложную регистрацию
    Показать сообщения:    

    Американская семейка через торрент
    Скачать бесплатно Американская семейка
    Американская семейка скачать торрент
    Американская семейка смотреть онлайн
    Cкачать фильм Американская семейка бесплатно
    Американская семейка скачать торрент в хорошем качестве
    Американская семейка смотреть онлайн бесплатно в хорошем качестве


    Вы не можете начинать темы
    Вы не можете отвечать на сообщения
    Вы не можете редактировать свои сообщения
    Вы не можете удалять свои сообщения
    Вы не можете голосовать в опросах
    Вы не можете прикреплять файлы к сообщениям
    Вы можете скачивать файлы