Ссылка на приватное зеркало нашего сайта всего за 1$. Внимание количество ограничено!!!

2 сезон

iTunes

1 сезон

1

iTunes

iTunes

iTunes

1 сезон

RePack

30

ИГРА 18+

pack

ВАЖНО

!!Акция!!

Alien_RageХит недели

RePack

MK11
pack

Забери бонус

RePack

jed

!!Акция!!

Alien_Rage

RePack

fifa19

RePack

Assassins Creed: Odyssey

RePack

NEED FOR SPEED™ PAYBACK

4 сезон

9 сезон

Бесстыжие 9 сезон

Все сериалы

все сериалы на PB.wtf

RePack

FAR CRY 5
  

Опустевший город / Reign Over Me (Майк Байндер) [2007, драма, BDRip 1080p by msltel] MVO pb.wtf

Опустевший город через торрент pb.wtf

Размер: 11.2 GB | Добавлен: 4 года 9 мес. назад | Торрент скачан:53 раза
Скачать  

26-01-2016 10:48 Опустевший город Скачать торрент  

Название: Опустевший город
Оригинальное название: Reign Over Me
Год выпуска: 2007
Страна: США
Жанр: драма
Продолжительность: 02:04:33
Перевод: профессиональный многоголосый

Режиссёр: Майк Байндер

В ролях: Адам Сэндлер, Дон Чидл, Лив Тайлер, Саффрон Берроуз, Кевин Кэннон, Мелинда Диллон, Харви Кейтель, Роберт Клейн, Дебора Оффнер, Джада Пинкетт Смит

Описание: Чарли Файнман и Алан Джонсон когда-то вместе учились в колледже и делили одну комнату в общежитии. Спустя годы они встречаются вновь и возобновляют дружеские отношения. Судьба по-разному обошлась с ними. Чарли, потерявший во время терактов 11 сентября жену и детей, поставил на своей жизни крест. Алан же стал хорошим дантистом и примерным семьянином. Случайная встреча становится для них переломным моментом в жизни, поскольку и тот, и другой как никогда испытывают потребность в преданном друге…



Качество: BDRip 1080p Сравнение с исходником
Формат: MKV
Видео: MPEG-4 AVC, 11.6 Mбит/с, 1920x800, 23,976 кадра/с
Аудио 1: русский, AC3, 640 kbps, 6 ch, 48 kHz [профессиональный многоголосый]
Аудио 2: английский, AC3, 640 kbps, 6 ch, 48 kHz [оригинал]
Субтитры 1: русские
Субтитры 2: английские
Общее
Уникальный идентификатор : 175591790254683574962432260129043147744 (0x8419BFA9C147EA368C26F6627DB66BE0)
Полное имя : D:\Video\Опустевший город.2007.BDRip.1080p.mkv
Формат : Matroska
Версия формата : Version 4 / Version 2
Размер файла : 11,2 Гбайт
Продолжительность : 2 ч. 4 м.
Общий поток : 12,9 Мбит/сек
Дата кодирования : UTC 2016-01-26 03:39:20
Программа кодирования : mkvmerge v8.2.0 ('World of Adventure') 64bit
Библиотека кодирования : libebml v1.3.1 + libmatroska v1.4.2

Видео
Идентификатор : 1
Формат : AVC
Формат/Информация : Advanced Video Codec
Профиль формата : High@L4.1
Параметр CABAC формата : Да
Параметр ReFrames формата : 4 кадра
Идентификатор кодека : V_MPEG4/ISO/AVC
Продолжительность : 2 ч. 4 м.
Битрейт : 11,6 Мбит/сек
Ширина : 1920 пикселей
Высота : 800 пикселей
Соотношение сторон : 2,40:1
Режим частоты кадров : Постоянный
Частота кадров : 23,976 (24000/1001) кадра/сек
Цветовое пространство : YUV
Субдискретизация насыщенности : 4:2:0
Битовая глубина : 8 бит
Тип развёртки : Прогрессивная
Бит/(Пиксели*Кадры) : 0.315
Размер потока : 10,1 Гбайт (90%)
Библиотека кодирования : x264 core 146 r2538 121396c
Настройки программы : cabac=1 / ref=4 / deblock=1:-1:-1 / analyse=0x3:0x113 / me=umh / subme=10 / psy=1 / psy_rd=1.00:0.15 / mixed_ref=1 / me_range=32 / chroma_me=1 / trellis=2 / 8x8dct=1 / cqm=0 / deadzone=21,11 / fast_pskip=1 / chroma_qp_offset=-3 / threads=6 / lookahead_threads=1 / sliced_threads=0 / nr=0 / decimate=1 / interlaced=0 / bluray_compat=0 / constrained_intra=0 / bframes=9 / b_pyramid=2 / b_adapt=2 / b_bias=0 / direct=1 / weightb=1 / open_gop=0 / weightp=2 / keyint=230 / keyint_min=23 / scenecut=40 / intra_refresh=0 / rc_lookahead=40 / rc=crf / mbtree=0 / crf=18.7 / qcomp=0.60 / qpmin=0 / qpmax=69 / qpstep=4 / vbv_maxrate=40000 / vbv_bufsize=50000 / crf_max=0.0 / nal_hrd=none / filler=0 / ip_ratio=1.40 / pb_ratio=1.30 / aq=1:1.00
Язык : English
Default : Да
Forced : Нет

Аудио #1
Идентификатор : 2
Формат : AC-3
Формат/Информация : Audio Coding 3
Расширение режима : CM (complete main)
Параметр Endianness формата : Big
Идентификатор кодека : A_AC3
Продолжительность : 2 ч. 4 м.
Вид битрейта : Постоянный
Битрейт : 640 Кбит/сек
Каналы : 6 каналов
Расположение каналов : Front: L C R, Side: L R, LFE
Частота : 48,0 КГц
Частота кадров : 31,250 кадров/сек (1536 spf)
Метод сжатия : С потерями
Размер потока : 570 Мбайт (5%)
Заголовок : MVO
Язык : Russian
Default : Да
Forced : Нет

Аудио #2
Идентификатор : 3
Формат : AC-3
Формат/Информация : Audio Coding 3
Расширение режима : CM (complete main)
Параметр Endianness формата : Big
Идентификатор кодека : A_AC3
Продолжительность : 2 ч. 4 м.
Вид битрейта : Постоянный
Битрейт : 640 Кбит/сек
Каналы : 6 каналов
Расположение каналов : Front: L C R, Side: L R, LFE
Частота : 48,0 КГц
Частота кадров : 31,250 кадров/сек (1536 spf)
Метод сжатия : С потерями
Размер потока : 570 Мбайт (5%)
Заголовок : Original
Язык : English
Default : Нет
Forced : Нет

Текст #1
Идентификатор : 4
Формат : UTF-8
Идентификатор кодека : S_TEXT/UTF8
Идентификатор кодека/Информация : UTF-8 Plain Text
Продолжительность : 1 ч. 56 м.
Битрейт : 107 бит/сек
Count of elements : 1726
Размер потока : 92,5 Кбайт (0%)
Заголовок : русский
Язык : Russian
Default : Нет
Forced : Нет

Текст #2
Идентификатор : 5
Формат : UTF-8
Идентификатор кодека : S_TEXT/UTF8
Идентификатор кодека/Информация : UTF-8 Plain Text
Продолжительность : 1 ч. 57 м.
Битрейт : 69 бит/сек
Count of elements : 1632
Размер потока : 59,2 Кбайт (0%)
Заголовок : английский
Default : Нет
Forced : Нет
pb.wtf



Скачать Опустевший город через торрент http://s020.radikal.ru/i722/1601/d0/0dd886fbd462.png Скачать фильм Опустевший город через торрент бесплантно в хорошем качестве Описание: Чарли Файнман и Алан Джонсон когда-то вместе учились в колледже и делили одну комнату в общежитии. Спустя годы они встречаются ... 7 10 3
Info! Золотая раздача, скачанное не засчитывается.
Торрент: Зарегистрирован [2016-01-26 10:48] · скачан: 53 раз
Статус: √ проверено
Размер: 11.2 GB
Как cкачать? Как скачать Опустевший город через торрент | qTorrent

% Раздел Тема Автор DL S | L
Фильмы [HD 720p, 1080p] (Хороший звук DUB, MVO) [ 4.47 GB ] Опустевший город / Reign Over Me [2007 BDRip 720p by msltel] MVO msltel Скачать
1 | 1

28-11-2019 20:33  

Отключить всю рекламу на сайте

    Дорогой пользователь! Огромная просьба, поблагодарите релизера, оцените раздачу и оставьте свои комментарий, если Вы скачали Опустевший город через торрент бесплатно! Внесите свою лепту в развитие PiratBit!
    Комментировать посты могут только пользователи прошедшие не сложную регистрацию
    Показать сообщения:    

    Опустевший город через торрент
    Скачать бесплатно Опустевший город
    Опустевший город скачать торрент
    Опустевший город смотреть онлайн
    Cкачать фильм Опустевший город бесплатно
    Опустевший город скачать торрент в хорошем качестве
    Опустевший город смотреть онлайн бесплатно в хорошем качестве


    Вы не можете начинать темы
    Вы не можете отвечать на сообщения
    Вы не можете редактировать свои сообщения
    Вы не можете удалять свои сообщения
    Вы не можете голосовать в опросах
    Вы не можете прикреплять файлы к сообщениям
    Вы можете скачивать файлы