Ссылка на приватное зеркало всего за 1$. Внимание количество ограничено!!!

OK

1+1

iTunes

мы

OK

1

WEB-DLRip

Джокер

Пифагор

Ведьмак / The Witcher сериал

iTunes

ПШазам

ОК

Оно 2

iTunes

30
pack

Вам бонус

ВАЖНО

!!Акция!!

Alien_RageХит недели

RePack

Resident Evil 21

ИГРА 18+

pack

RePack

jed

RePack

fifa19

RePack

Assassins Creed: Odyssey

RePack

NEED FOR SPEED™ PAYBACK

4 сезон

9 сезон

Бесстыжие 9 сезон

Все сериалы

все сериалы на PB.wtf

RePack

FAR CRY 5
  

Джесси Cтоун: Тайны парадиза / Jesse Stone: Lost in Paradise (Роберт Хармон) [2015, драма, криминал, WEB-DLRip, Профессиональный многоголосый [Чистый звук] pb.wtf

Джесси Cтоун: Тайны парадиза через торрент pb.wtf

Размер: 1.37 GB | Добавлен: 3 года 11 мес. назад | Торрент скачан:389 раз
Скачать  

26-01-2016 16:20 Джесси Cтоун: Тайны парадиза Скачать торрент  


Джесси Cтоун: Тайны парадиза / Jesse Stone: Lost in Paradise


ИНФОРМАЦИЯ:
Год выпуска:2015
Страна: США, Канада
Жанр: драма, криминал
Продолжительность: 01:29:11
Перевод: Профессиональный многоголосый [Чистый звук]
Режиссер: Роберт Хармон

В Ролях:


Том Селлек (Jesse Stone), Кол Саддаф (Officer Luther «Suitcase» Simpson), Глория Рубен (Thelma Gleffey), Лесли Хоуп (Lt. Sydney Greenstreet), Уильям Сэдлер (Gino Fish), Амелия Роуз Блэйр (Amelia «Charlotte» Hope), Алекс Картер (Det. Dan Leary), Маккензи Фой (Jenny O'Neill), Ал Сапиенца (Bruce Davies), Керри Смит (Sister Mary John), Кристин Тиззард (Amanda), Доун Гринхалг (June)

Описание:
Детектив Джесси Стоун идет по следу наемного убийцы, оставляющего за собой горы трупов и бесследно исчезающего после выполнения контракта. Но это далеко не единственная забота полицейского. В частности, ему предстоит вникать в жизнь сбившихся с пути подростков своего родного Бостона.

  • Мировая премьера:18 октября 2015

    ТЕХ.ДАННЫЕ:
    Качество: WEB-DLRip
    Формат: AVI
    Видео: XviD, 720x400 (16:9), 1907 kbps, 23,976 fps, 0,276 bpp
    Аудио: AC3 / 2.0 / 48 kHz / 192 kbps / 16 bit


    General
    Complete name : D:\Торенты\DjeSs1.S3oUn.2015.P.WEB-DLRip.1400MB.avi
    Format : AVI
    Format/Info : Audio Video Interleave
    File size : 1.37 GiB
    Duration : 1h 29mn
    Overall bit rate : 2 195 Kbps
    Writing application : VirtualDubMod 1.5.10.3 | www.virtualdub-fr.org || (build 2550/release)
    Writing library : VirtualDubMod build 2550/release

    Video
    ID : 0
    Format : MPEG-4 Visual
    Format profile : Advanced Simple@L5
    Format settings, BVOP : 2
    Format settings, QPel : No
    Format settings, GMC : No warppoints
    Format settings, Matrix : Default (MPEG)
    Codec ID : XVID
    Codec ID/Hint : XviD
    Duration : 1h 29mn
    Bit rate : 1 907 Kbps
    Width : 720 pixels
    Height : 400 pixels
    Display aspect ratio : 16:9
    Frame rate : 23.976 fps
    Color space : YUV
    Chroma subsampling : 4:2:0
    Bit depth : 8 bits
    Scan type : Progressive
    Compression mode : Lossy
    Bits/(Pixel*Frame) : 0.276
    Stream size : 1.19 GiB (87%)
    Writing library : XviD 1.2.1 (UTC 2008-12-04)

    Audio
    ID : 1
    Format : AC-3
    Format/Info : Audio Coding 3
    Mode extension : CM (complete main)
    Codec ID : 2000
    Duration : 1h 29mn
    Bit rate mode : Constant
    Bit rate : 192 Kbps
    Channel(s) : 2 channels
    Channel positions : Front: L R
    Sampling rate : 48.0 KHz
    Bit depth : 16 bits
    Compression mode : Lossy
    Stream size : 122 MiB (9%)
    Alignment : Split accross interleaves
    Скриншоты:

    © Оформление by .::Ворон::.
    pb.wtf
    !Ворон писал(а):

    Присутствует реклама казино, в начале и конце фильма.



  • Скачать Джесси Cтоун: Тайны парадиза через торрент http://pic.kartinco.top/images/6/ordi9.jpg Скачать фильм Джесси Cтоун: Тайны парадиза через торрент бесплантно в хорошем качестве Описание: Детектив Джесси Стоун идет по следу наемного убийцы, оставляющего за собой горы трупов и бесследно исчезающего после выполнения ... 9.2 10 11
    Торрент: Зарегистрирован [2016-01-26 16:20] · скачан: 389 раз
    Статус: T временная
    Размер: 1.37 GB
    Как cкачать? Как скачать Джесси Cтоун: Тайны парадиза через торрент | qTorrent

    28-11-2019 20:33  

    Отключить всю рекламу на сайте

    27-01-2016 15:12 Джесси Cтоун: Тайны парадиза Скачать торрент  

    как фильм народ.pb.wtf



      Дорогой пользователь! Огромная просьба, поблагодарите релизера, оцените раздачу и оставьте свои комментарий, если Вы скачали Джесси Cтоун: Тайны парадиза через торрент бесплатно! Внесите свою лепту в развитие PiratBit!
      Комментировать посты могут только пользователи прошедшие не сложную регистрацию
      Показать сообщения:    

      Джесси Cтоун: Тайны парадиза через торрент
      Скачать бесплатно Джесси Cтоун: Тайны парадиза
      Джесси Cтоун: Тайны парадиза скачать торрент
      Джесси Cтоун: Тайны парадиза смотреть онлайн
      Cкачать фильм Джесси Cтоун: Тайны парадиза бесплатно
      Джесси Cтоун: Тайны парадиза скачать торрент в хорошем качестве
      Джесси Cтоун: Тайны парадиза смотреть онлайн бесплатно в хорошем качестве


      Вы не можете начинать темы
      Вы не можете отвечать на сообщения
      Вы не можете редактировать свои сообщения
      Вы не можете удалять свои сообщения
      Вы не можете голосовать в опросах
      Вы не можете прикреплять файлы к сообщениям
      Вы можете скачивать файлы