Ссылка на приватное зеркало нашего сайта всего за 1$. Внимание количество ограничено!!!

2 сезон

iTunes

1 сезон

1

2 сезон

2 сезон

iTunes

1 сезон

RePack

30

Новинка

ВАЖНО

ИГРА 18+

pack

RePack

MK11
pack

Забери бонус

RePack

jed

!!Акция!!

Alien_Rage

RePack

fifa19

RePack

Assassins Creed: Odyssey

RePack

NEED FOR SPEED™ PAYBACK

4 сезон

9 сезон

Бесстыжие 9 сезон

Все сериалы

все сериалы на PB.wtf

RePack

FAR CRY 5
  

Люцифер / Lucifer/ Сезон: 1 / Серии 1-13 из 13 (Лен Уайзман / Len Wiseman) [2015, США, фэнтези, BDRip-AVC] MVO [BaibaKo] pb.wtf

Люцифер через торрент pb.wtf

Размер: 10.82 GB | Добавлен: 3 года 10 мес. назад | Торрент скачан:42 раза
Скачать  

27-01-2016 12:43 Люцифер Скачать торрент  


Люцифер / Lucifer



  • Год выпуска: 2015
  • Страна: США
  • Жанр: фэнтези
  • Продолжительность: 00:44:51 (Серия)
  • Перевод: Профессиональный многоголосый закадровый [BaibaKo]
  • Режиссер: Лен Уайзман / Len Wiseman
  • В ролях:

    Кевин Алехандро (Dan (2016)), Д.Б. Вудсайд (Amenadiel (2016)), Кристен Биттинг (Bridesmaid), Лесли-Энн Брандт (Mazikeen aka Maze), Jordan Cockeram (Wedding Guest), Мэтт Корбой (Officer Diggs), Том Эллис (Lucifer), Скарлет Эстевез (Trixie), Кайла Юэлл (Amanda Bello), Лорен Джерман (Chloe Dancer), Рэйчел Харрис (Linda), Jennifer Kathreen Larson (Pandora)

  • Описание:
    Заскучавший и несчастный повелитель преисподней, Люцифер Морнингстар оставил свой престол и отправился в современный Лос-Анджелес, где основал ночной клуб «Lux». Очаровательный, харизматичный и дьявольски привлекательный Люцифер наслаждается своим отдыхом - вином, женщинами и музыкой - пока красивая поп-звезда не оказывается убитой на пороге его клуба...
  • Рейтинг:



  • Качество: BDRip-AVC
  • Формат: :MPEG-4
  • Видео кодек: AVC
  • Аудио кодек: AC3
  • Видео: 2000 Кбит/сек, 1024*576 (16:9), в 23,976 (24000/1001) кадра/сек, AVC
  • Аудио №1: русский 384 Кбит/сек, 48,0 КГц, 16 бит, 6 каналов, AC-3 |[BaibaKo]|
  • Аудио №2: английский 384 Кбит/сек, 48,0 КГц, 16 бит, 6 каналов, AC-3
  • Релиз от: GEKADOL

    Внимание! Раздача ведётся путём добавления новых серий; при каждом добавлении создаётся новый торрент. Чтобы начать докачку новой серии, пользователям необходимо сделать следующее:
    (1) остановить скачивание,
    (2) удалить старый торрент у себя из клиента (старые серии удалять не надо),
    (3) скачать новый торрент и запустить его у себя в клиенте вместо старого, при этом указать клиенту путь в старую папку куда и должно происходить скачивание новых серий.
    Ваш клиент при этом должен произвести хеширование (проверку) старой папки (если не производит сам - помогите ему сделать это), и будет докачивать только те серии которых у вас ещё нет. Старые серии при этом не удаляются, а продолжают раздаваться!
    Eсли вы уже удалили старые серии, то предотвратить повторную закачку старых серий можно, отжав галочку в соответствующих местах при запуске нового торрента. По возможности, желательно не удалять старые серии как можно дольше чтобы релизёр не столько продолжал раздавать старые серии, а смог сконцентрироваться на новых.

    Общее
    Полное имя : K:\Люцифер\Lucifer.s01e13.BDRip-AVC.Rus.Eng.BaibaKo.tv.mp4
    Формат : MPEG-4
    Профиль формата : Base Media
    Идентификатор кодека : isom (isom/iso2/avc1/mp41)
    Размер файла : 860 Мбайт
    Продолжительность : 43 м. 26 с.
    Общий поток : 2766 Кбит/сек
    Программа кодирования : XviD4PSP 7.0.346 DAILY
    HDVideo : Yes
    encoding_info : MATROSKA / WEBM > MP4 Произвольный / H264 > X264 CBR 2000kbps HQ / DTS > AC3 CBR 384kbps / DTS > AC3 CBR 384kbps

    Видео
    Идентификатор : 1
    Формат : AVC
    Формат/Информация : Advanced Video Codec
    Профиль формата : High@L4.1
    Параметр CABAC формата : Да
    Параметр ReFrames формата : 4 кадра
    Идентификатор кодека : avc1
    Идентификатор кодека/Информация : Advanced Video Coding
    Продолжительность : 43 м. 26 с.
    Битрейт : 2000 Кбит/сек
    Ширина : 1024 пикселя
    Высота : 576 пикселей
    Соотношение сторон : 16:9
    Режим частоты кадров : Постоянный
    Частота кадров : 23,976 (24000/1001) кадра/сек
    Цветовое пространство : YUV
    Субдискретизация насыщенности : 4:2:0
    Битовая глубина : 8 бит
    Тип развёртки : Прогрессивная
    Бит/(Пиксели*Кадры) : 0.141
    Размер потока : 619 Мбайт (72%)
    Библиотека кодирования : x264 core 148 r2744M b97ae06
    Настройки программы : cabac=1 / ref=3 / deblock=1:-1:-1 / analyse=0x3:0x133 / me=hex / subme=7 / psy=1 / psy_rd=1.00:0.20 / mixed_ref=1 / me_range=16 / chroma_me=1 / trellis=1 / 8x8dct=1 / cqm=0 / deadzone=21,11 / fast_pskip=1 / chroma_qp_offset=-3 / threads=5 / lookahead_threads=1 / sliced_threads=0 / nr=0 / decimate=1 / interlaced=0 / bluray_compat=0 / constrained_intra=0 / bframes=3 / b_pyramid=2 / b_adapt=2 / b_bias=0 / direct=3 / weightb=1 / open_gop=0 / weightp=2 / keyint=230 / keyint_min=23 / scenecut=40 / intra_refresh=0 / rc_lookahead=40 / rc=cbr / mbtree=1 / bitrate=2000 / ratetol=1.0 / qcomp=0.60 / qpmin=0 / qpmax=69 / qpstep=4 / vbv_maxrate=2000 / vbv_bufsize=30000 / nal_hrd=none / filler=0 / ip_ratio=1.40 / aq=1:1.00

    Аудио #1
    Идентификатор : 2
    Формат : AC-3
    Формат/Информация : Audio Coding 3
    Расширение режима : CM (complete main)
    Параметр Endianness формата : Big
    Идентификатор кодека : ac-3
    Продолжительность : 43 м. 26 с.
    Вид битрейта : Постоянный
    Битрейт : 384 Кбит/сек
    Каналы : 6 каналов
    Расположение каналов : Front: L C R, Side: L R, LFE
    Частота : 48,0 КГц
    Частота кадров : 31,250 кадров/сек (1536 spf)
    Битовая глубина : 16 бит
    Метод сжатия : С потерями
    Размер потока : 119 Мбайт (14%)
    Язык : Russian
    Default : Да
    Alternate group : 1

    Аудио #2
    Идентификатор : 3
    Формат : AC-3
    Формат/Информация : Audio Coding 3
    Расширение режима : CM (complete main)
    Параметр Endianness формата : Big
    Идентификатор кодека : ac-3
    Продолжительность : 43 м. 26 с.
    Вид битрейта : Постоянный
    Битрейт : 384 Кбит/сек
    Каналы : 6 каналов
    Расположение каналов : Front: L C R, Side: L R, LFE
    Частота : 48,0 КГц
    Частота кадров : 31,250 кадров/сек (1536 spf)
    Битовая глубина : 16 бит
    Метод сжатия : С потерями
    Размер потока : 119 Мбайт (14%)
    Язык : English
    Default : Нет
    Alternate group : 1



    Скриншоты:
    скриншот   скриншот   скриншот   скриншот   скриншот   скриншот   скриншот  
    скриншот  

    Раздача ведётся путём добавления новых серий. Добавлена 13 серия (17.01.2016).Просьба перекачать торрент файл.

    pb.wtf



  • Скачать Люцифер через торрент http://i75.fastpic.ru/big/2016/0317/da/875c60f73400beeaa41230bfe33e0cda.gif Скачать фильм Люцифер через торрент бесплантно в хорошем качестве Описание: Заскучавший и несчастный повелитель преисподней, Люцифер Морнингстар оставил свой престол и отправился в современный ... 9.4 10 28
    Info! Золотая раздача, скачанное не засчитывается.
    Торрент: Зарегистрирован [2017-01-17 07:29] · скачан: 42 раз
    Статус: √ проверено
    Размер: 10.82 GB
    Как cкачать? Как скачать Люцифер через торрент | qTorrent

    % Раздел Тема Автор DL S | L
    Зарубежные сериалы [ 7.02 GB ] Люцифер / Lucifer / Сезон 1 / Серии 1-13 из 13 [2016 BDRip] MVO [BaibaKo] bober100 Скачать
    1 | 0
    Зарубежные сериалы [ 18.91 GB ] Люцифер / Lucifer/ Сезон: 1 / Серии 1-13 из 13 [2015 WEB-DL 720р MVO] [NewStudio] GEKADOL Скачать
    1 | 0
    R.G.Resident - Сериалы, Видео [ 1.5 GB ] Люцифер / Lucifer/ Сезон: 1 / Серии 1-9 из 13 [2016 WEB-DLRip ] MVO [BaibaKo] Стpана Скачать
    1 | 0
    Зарубежные сериалы [ 7.01 GB ] Люцифер / Lucifer/ Сезон: 1 / Серии 1-13 из 13 [2016 WEB-DLRip] [MVO] + [Orig] killermax2013 Скачать
    1 | 0
    Зарубежные сериалы [ 550 MB ] Люцифер / Lucifer/ Сезон: 1 / Серии 1 из 13 [2015 HDTVRip MVO] [NewStudio] GEKADOL Скачать
    1 | 0


    Последний раз редактировалось: GEKADOL (2017-01-17 07:30), всего редактировалось 11 раз(а)

    28-11-2019 20:33  

    Отключить всю рекламу на сайте

    27-01-2016 13:46 Люцифер Скачать торрент  

    от вышедшего 3 месяца назад, есть какие нибудь отличияpb.wtf



    27-01-2016 14:05 Люцифер Скачать торрент  

    HeqpuJIuM писал(а):

    от вышедшего 3 месяца назад, есть какие нибудь отличия

    ага тоже смотрел 3 месяца назад 1 серию)pb.wtf



    27-01-2016 15:58 Люцифер Скачать торрент  

    а с 15 августа не хотите ждемс?2 серию) Люцифер / Lucifer/ Сезон: 1 / Серии 1-13 из 13 в википедии 1 февраля 2016 2 серия выйдет а пилот 25 января.чудно ..pb.wtf



    27-01-2016 21:49 Люцифер Скачать торрент  

    смена актерского состава и вроде как немного диалогов. бывший Копши поменян. Байбаки - зло, за оригинальную дорогу - респект!pb.wtf



    25-02-2016 17:45 Люцифер Скачать торрент  

    Хрень, трень, брень. Американская сестра Арнгольц, старается..pb.wtf



    19-03-2016 20:49 Люцифер Скачать торрент  



    шапочку намутил))))pb.wtf



    26-03-2016 05:00 Люцифер Скачать торрент  

    _Fenixx_ писал(а):



    шапочку намутил))))

    Спасибо!! Использую если можно конечно)pb.wtf



    26-03-2016 12:00 Люцифер Скачать торрент  

    GEKADOL писал(а):

    _Fenixx_ писал(а):



    шапочку намутил))))

    Спасибо!! Использую если можно конечно)

    Конечно можно)))pb.wtf



      Дорогой пользователь! Огромная просьба, поблагодарите релизера, оцените раздачу и оставьте свои комментарий, если Вы скачали Люцифер через торрент бесплатно! Внесите свою лепту в развитие PiratBit!
      Комментировать посты могут только пользователи прошедшие не сложную регистрацию
      Показать сообщения:    

      Люцифер через торрент
      Скачать бесплатно Люцифер
      Люцифер скачать торрент
      Люцифер смотреть онлайн
      Cкачать фильм Люцифер бесплатно
      Люцифер скачать торрент в хорошем качестве
      Люцифер смотреть онлайн бесплатно в хорошем качестве


      Вы не можете начинать темы
      Вы не можете отвечать на сообщения
      Вы не можете редактировать свои сообщения
      Вы не можете удалять свои сообщения
      Вы не можете голосовать в опросах
      Вы не можете прикреплять файлы к сообщениям
      Вы можете скачивать файлы