Ссылка на приватное зеркало всего за 1$. Внимание количество ограничено!!!

OK

1+1

iTunes

мы

OK

1

WEB-DLRip

Джокер

Пифагор

Ведьмак / The Witcher сериал

Лицензия

ПШазам

ОК

Оно 2

iTunes

30
pack

Вам бонус

ВАЖНО

!!Акция!!

Alien_RageХит недели

RePack

Resident Evil 21

ИГРА 18+

pack

RePack

jed

RePack

fifa19

RePack

Assassins Creed: Odyssey

RePack

NEED FOR SPEED™ PAYBACK

4 сезон

9 сезон

Бесстыжие 9 сезон

Все сериалы

все сериалы на PB.wtf

RePack

FAR CRY 5
  

Кто там / Knock Knock (Элай Рот / Eli Roth) [2015, Чили, США, триллер, BDRip-AVC от sokol_ok] Dub [iTunes] pb.wtf

Кто там через торрент pb.wtf

Раздают: 2 [ 13 KB/s ]
Размер: 2.14 GB | Добавлен: 3 года 11 мес. назад | Торрент скачан:973 раза
Скачать  

27-01-2016 15:56 Кто там Скачать торрент  

Кто там
Knock Knock

«Бойся своих желаний»


Страна: Чили, США
Жанр: триллер

Год выпуска: 2015
Продолжительность: 01:39:47

Перевод: Профессиональный (полное дублирование) [Лицензия iTunes]
Cубтитры: русские (Full), английские (Full, SDH, SDH-Colored)
Оригинальная аудиодорожка: английский

Режиссер: Элай Рот / Eli Roth

В ролях: Киану Ривз, Лоренца Иззо, Ана де Армас, Аарон Барнс, Игнасия Алламанд, Дэн Бейли, Меган Бейли, Коллин Кэмп, Антонио Куэрча, Otto

Описание:
Отправив семью за город, архитектор Эван остается на выходных дома один доделывать срочный проект.
К нему стучатся две милые молодые девушки лет двадцати, насквозь промокшие и заблудившиеся. Эван не мог предположить, что протянутая рука помощи обернется для него чередой изощренных издевательств, изысканных пыток и медленного садистского уничтожения семьи... Релиз:

Автор рипа: Stalker oK

Сэмпл

Качество видео: BDRip-AVC [HDCLUB / Blu-ray Remux / 1080p]
Формат видео: MKV
Видео кодек: AVC
Аудио кодек: AC3
Видео: 2234 Кбит/сек, 1070*448 (2,40:1), в 23,976 (24000/1001) кадра/сек, AVC
Аудио #1: Russian, 384 Кбит/сек, 48,0 КГц, 6 каналов, AC-3
Аудио #2: English, 448 Кбит/сек, 48,0 КГц, 6 каналов, AC-3
Навигация по главам: есть

Общее
Уникальный идентификатор : 228159818746158868781778693390295373851 (0xABA5FB926B2375B4B176A69BB614181B)
Полное имя : M:\Rips3\Knock Knock\Knock.Knock.2015.BDRip-AVC.Dub.2.18Gb.stalkerok.new-team.mkv
Формат : Matroska
Версия формата : Version 4 / Version 2
Размер файла : 2,14 Гбайт
Продолжительность : 1 ч. 39 м.
Общий поток : 3064 Кбит/сек
Название фильма : Knock Knock (2015) (New-Team) (Rip by Stalker oK)
Дата кодирования : UTC 2016-01-27 13:23:57
Программа кодирования : mkvmerge v8.6.1 ('Flying') 64bit
Библиотека кодирования : libebml v1.3.3 + libmatroska v1.4.4

Видео
Идентификатор : 1
Формат : AVC
Формат/Информация : Advanced Video Codec
Профиль формата : High@L4.1
Параметр CABAC формата : Да
Параметр ReFrames формата : 14 кадров
Идентификатор кодека : V_MPEG4/ISO/AVC
Продолжительность : 1 ч. 39 м.
Битрейт : 2234 Кбит/сек
Ширина : 1070 пикселей
Высота : 448 пикселей
Соотношение сторон : 2,40:1
Режим частоты кадров : Постоянный
Частота кадров : 23,976 (24000/1001) кадра/сек
Цветовое пространство : YUV
Субдискретизация насыщенности : 4:2:0
Битовая глубина : 8 бит
Тип развёртки : Прогрессивная
Бит/(Пиксели*Кадры) : 0.194
Размер потока : 1,55 Гбайт (73%)
Заголовок : Knock Knock (2015) (New-Team) (Rip by Stalker oK)
Библиотека кодирования : x264 core 148 r2665kMod a01e339
Настройки программы : cabac=1 / ref=14 / deblock=1:-3:-3 / analyse=0x3:0x133 / me=umh / subme=11 / psy=1 / fade_compensate=0.00 / psy_rd=1.00:0.10 / mixed_ref=1 / me_range=48 / chroma_me=1 / trellis=2 / 8x8dct=1 / cqm=0 / deadzone=21,11 / fast_pskip=0 / chroma_qp_offset=-3 / threads=12 / lookahead_threads=3 / sliced_threads=0 / nr=0 / decimate=0 / interlaced=0 / bluray_compat=0 / constrained_intra=0 / fgo=0 / bframes=15 / b_pyramid=2 / b_adapt=2 / b_bias=0 / direct=3 / weightb=1 / open_gop=0 / weightp=2 / keyint=240 / keyint_min=23 / scenecut=40 / intra_refresh=0 / rc_lookahead=60 / rc=2pass / mbtree=0 / bitrate=2234 / ratetol=1.0 / qcomp=0.70 / qpmin=0 / qpmax=69 / qpstep=4 / cplxblur=20.0 / qblur=0.5 / vbv_maxrate=50000 / vbv_bufsize=62500 / nal_hrd=none / filler=0 / ip_ratio=1.40 / pb_ratio=1.30 / aq=3:0.90
Default : Да
Forced : Нет

Аудио #1
Идентификатор : 2
Формат : AC-3
Формат/Информация : Audio Coding 3
Расширение режима : CM (complete main)
Параметр Endianness формата : Big
Идентификатор кодека : A_AC3
Продолжительность : 1 ч. 39 м.
Вид битрейта : Постоянный
Битрейт : 384 Кбит/сек
Каналы : 6 каналов
Расположение каналов : Front: L C R, Side: L R, LFE
Частота : 48,0 КГц
Частота кадров : 31,250 кадров/сек (1536 spf)
Метод сжатия : С потерями
Размер потока : 274 Мбайт (13%)
Язык : Russian
Default : Да
Forced : Нет

Аудио #2
Идентификатор : 3
Формат : AC-3
Формат/Информация : Audio Coding 3
Расширение режима : CM (complete main)
Параметр Endianness формата : Big
Идентификатор кодека : A_AC3
Продолжительность : 1 ч. 39 м.
Вид битрейта : Постоянный
Битрейт : 448 Кбит/сек
Каналы : 6 каналов
Расположение каналов : Front: L C R, Side: L R, LFE
Частота : 48,0 КГц
Частота кадров : 31,250 кадров/сек (1536 spf)
Метод сжатия : С потерями
Размер потока : 320 Мбайт (15%)
Язык : English
Default : Нет
Forced : Нет

Текст #1
Идентификатор : 4
Формат : UTF-8
Идентификатор кодека : S_TEXT/UTF8
Идентификатор кодека/Информация : UTF-8 Plain Text
Продолжительность : 1 ч. 31 м.
Битрейт : 92 бит/сек
Count of elements : 1330
Размер потока : 62,4 Кбайт (0%)
Заголовок : Full
Язык : Russian
Default : Нет
Forced : Нет

Текст #2
Идентификатор : 5
Формат : UTF-8
Идентификатор кодека : S_TEXT/UTF8
Идентификатор кодека/Информация : UTF-8 Plain Text
Продолжительность : 1 ч. 31 м.
Битрейт : 52 бит/сек
Count of elements : 1300
Размер потока : 35,3 Кбайт (0%)
Заголовок : Full
Язык : English
Default : Нет
Forced : Нет

Текст #3
Идентификатор : 6
Формат : UTF-8
Идентификатор кодека : S_TEXT/UTF8
Идентификатор кодека/Информация : UTF-8 Plain Text
Продолжительность : 1 ч. 31 м.
Битрейт : 57 бит/сек
Count of elements : 1471
Размер потока : 38,6 Кбайт (0%)
Заголовок : SDH
Язык : English
Default : Нет
Forced : Нет

Текст #4
Идентификатор : 7
Формат : UTF-8
Идентификатор кодека : S_TEXT/UTF8
Идентификатор кодека/Информация : UTF-8 Plain Text
Продолжительность : 1 ч. 35 м.
Битрейт : 66 бит/сек
Count of elements : 1472
Размер потока : 46,3 Кбайт (0%)
Заголовок : SDH-Colored
Язык : English
Default : Нет
Forced : Нет

Меню
00:00:00.000 : en:Chapter 1
00:06:51.786 : en:Chapter 2
00:10:31.422 : en:Chapter 3
00:12:34.586 : en:Chapter 4
00:20:51.208 : en:Chapter 5
00:31:25.383 : en:Chapter 6
00:35:31.753 : en:Chapter 7
00:38:41.277 : en:Chapter 8
00:45:00.405 : en:Chapter 9
00:52:40.614 : en:Chapter 10
01:00:14.443 : en:Chapter 11
01:02:19.068 : en:Chapter 12
01:11:58.689 : en:Chapter 13
01:18:03.929 : en:Chapter 14
01:26:09.747 : en:Chapter 15
01:34:14.606 : en:Chapter 16
pb.wtf



Скачать Кто там через торрент http://i72.fastpic.ru/big/2015/0531/46/68ef8a2783b58e5344cc30bbd3f1b046.png Скачать фильм Кто там через торрент бесплантно в хорошем качестве Описание:Отправив семью за город, архитектор Эван остается на выходных дома один доделывать срочный проект.К нему стучатся две милые ... 9.2 10 11
Info! Золотая раздача, скачанное не засчитывается.
Торрент: Зарегистрирован [2016-01-27 15:56] · скачан: 973 раз
Статус: √ проверено
Размер: 2.14 GB
Как cкачать? Как скачать Кто там через торрент | qTorrent

% Раздел Тема Автор DL S | L
Фильмы 2015 [DVDrip, WEB-DLRip, HDrip] [ 2.02 GB ] Кто там / Knock Knock [2015 Чили BDRip-AVC] - ExKinoRay Enigma2010 Скачать
2 | 0
Фильмы 2015 [DVDrip, WEB-DLRip, HDrip] [ 1.41 GB ] Кто там / Knock Knock [2015 Чили BDRip-AVC от sokol_ok] Dub sokol_ok Скачать
2 | 0
Фильмы 2015 [DVDrip, WEB-DLRip, HDrip] [ 2.14 GB ] Кто там / Knock Knock [2015 BDRip-AVC] Dub potroks Скачать
1 | 0
Фильмы (Blu-ray, BD-Remux, HDDVD) [ 28.03 GB ] Кто там? / Knock Knock [2015 Чили BDRemux 1080p от HDClub DUB ] Ворон Скачать
1 | 0
Фильмы 2015 [DVDrip, WEB-DLRip, HDrip] [ 1.42 GB ] Кто там? / Knock Knock [2015 Чили BDRip ] Twi7ter Скачать
1 | 0
Фильмы с авторской озвучкой [ 1.37 GB ] Кто там / Knock Knock [2015 HDRip Авторский [М.Яроцкий] MihailHD Скачать
1 | 0
Фильмы 2015 [DVDrip, WEB-DLRip, HDrip] [ 1.46 GB ] Кто там / Knock Knock [2015 HDRip / ] MihailHD Скачать
1 | 0

28-11-2019 20:33  

Отключить всю рекламу на сайте

27-01-2016 17:02 Кто там Скачать торрент  

трейлер заинтересовал, посмотрим как оно ))pb.wtf



27-01-2016 17:04 Кто там Скачать торрент  

Киану Ривзу надо уже перестать сниматься в говняных фильмах, с каждым фильмом все хуже и хуже((((pb.wtf



09-02-2016 19:02 Кто там Скачать торрент  

Сюжет полный бред pb.wtf



27-05-2017 12:18 Кто там Скачать торрент  

Отличный фильм,правда чуток затянут сюжет.pb.wtf



    Дорогой пользователь! Огромная просьба, поблагодарите релизера, оцените раздачу и оставьте свои комментарий, если Вы скачали Кто там через торрент бесплатно! Внесите свою лепту в развитие PiratBit!
    Комментировать посты могут только пользователи прошедшие не сложную регистрацию
    Показать сообщения:    

    Кто там через торрент
    Скачать бесплатно Кто там
    Кто там скачать торрент
    Кто там смотреть онлайн
    Cкачать фильм Кто там бесплатно
    Кто там скачать торрент в хорошем качестве
    Кто там смотреть онлайн бесплатно в хорошем качестве


    Вы не можете начинать темы
    Вы не можете отвечать на сообщения
    Вы не можете редактировать свои сообщения
    Вы не можете удалять свои сообщения
    Вы не можете голосовать в опросах
    Вы не можете прикреплять файлы к сообщениям
    Вы можете скачивать файлы