Ссылка на приватное зеркало всего за 1$. Внимание количество ограничено!!!

iTunes

iTunes

iTunes

1

iTunes

iTunes

iTunes

WEBRip

iTunes

30
pack

$ от Little Big

ВАЖНО

!!Акция!!

Alien_RageХит недели

RePack

Resident Evil 21

ИГРА 18+

pack

RePack

jed

!!Акция!!

Alien_Rage

RePack

fifa19

RePack

Assassins Creed: Odyssey

RePack

NEED FOR SPEED™ PAYBACK

4 сезон

9 сезон

Бесстыжие 9 сезон

Все сериалы

все сериалы на PB.wtf

RePack

FAR CRY 5
  

Скорость: Автобус 657 / Heist (Скотт Манн / Scott Mann) [2015, боевик, триллер, BDRip-AVC от potroks] DUB Лицензия pb.wtf

Скорость: Автобус 657 через торрент pb.wtf

Размер: 2.18 GB | Добавлен: 4 года 6 мес. назад | Торрент скачан:142 раза
Скачать  

28-01-2016 04:32 Скорость: Автобус 657 Скачать торрент  

Скорость: Автобус 657 / Heist
«Её жизнь дороже его смерти»
Год выпуска: 2015
Страна: США / Silver Plane Pictures, Mass Hysteria Entertainment
Жанр: боевик, триллер
Продолжительность: 01:32:18
Перевод: Дубляж [BD RUS]
Субтитры: английские
Навигация по главам: есть
Режиссер: Скотт Манн / Scott Mann
В ролях:

Джеффри Дин Морган (Vaughn), Роберт Де Ниро (The Pope), Кейт Босворт (Sydney), Дэйв Батиста (Cox), Саммер Элтис (Cristal), Джина Карано (Kris), Марк-Пол Госселаар (Marconi), Моррис Честнат (Dog), Д.Б. Суини (Bernie), Алисса Джулия Смит (Rebecca), Лидия Халл (Pauline), Лэнс Э. Николс (Captain Michaels)
Описание: Все знают, что обокрасть Фрэнка Поупа, владельца казино и босса мафии — это самоубийство. Но однажды некогда преданный ему крупье решается вынести из кассы казино несколько миллионов долларов. Все было продумано, но план не сработал. Скрываясь с места преступления, грабители захватывают автобус, полный заложников. На бешеной скорости автобус мчится к мексиканской границе. Топливо на пределе. На хвосте — мафия и полиция. И, кажется, выхода нет…

Качество: BDRip-AVC
Формат: MKV
Видео кодек: AVC
Аудио кодек: AC3
Видео: 1152x480 (2.40:1), 2485 kbps, 23,976 fps, 0.187 bit/pixel
Аудио №1: AC3 / 5.1 / 48 kHz / 448 kbps / 16 bit | RUS (работа со звуком: potroks)
Аудио №2: AC3 / 5.1 / 48 kHz / 448 kbps / 16 bit | ENG

Релиз группы:
Автор рипа: potroks

Код:

General
Unique ID                   : 181693666059763001958149351889086898295 (0x88B0ED5E17E003A391482EE79166E077)
Complete name               : Skorost.Avtobus.657.2015.DUAL.BDRip.x264.-HELLYWOOD.mkv
Format                      : Matroska
Format version              : Version 4 / Version 2
File size                   : 2.18 GiB
Duration                    : 1h 32mn
Overall bit rate            : 3 383 Kbps
Movie name                  : Heist (2015) - HELLYWOOD
Encoded date                : UTC 2010-02-22 21:41:31
Writing application         : mkvmerge v5.8.0 ('No Sleep / Pillow') built on Sep 30 2012 10:57:14
Writing library             : libebml v1.3.0 + libmatroska v1.4.0

Video
ID                          : 1
Format                      : AVC
Format/Info                 : Advanced Video Codec
Format profile              : High@L4.1
Format settings, CABAC      : Yes
Format settings, ReFrames   : 10 frames
Codec ID                    : V_MPEG4/ISO/AVC
Duration                    : 1h 32mn
Bit rate                    : 2 485 Kbps
Width                       : 1 152 pixels
Height                      : 480 pixels
Display aspect ratio        : 2.40:1
Frame rate mode             : Constant
Frame rate                  : 23.976 fps
Color space                 : YUV
Chroma subsampling          : 4:2:0
Bit depth                   : 8 bits
Scan type                   : Progressive
Bits/(Pixel*Frame)          : 0.187
Stream size                 : 1.56 GiB (72%)
Title                       : potroks
Writing library             : x264 core 146 r2538 121396c
Encoding settings           : cabac=1 / ref=10 / deblock=1:-2:-2 / analyse=0x3:0x113 / me=umh / subme=11 / psy=1 / psy_rd=1.00:0.05 / mixed_ref=1 / me_range=48 / chroma_me=1 / trellis=2 / 8x8dct=1 / cqm=0 / deadzone=21,11 / fast_pskip=0 / chroma_qp_offset=-3 / threads=9 / lookahead_threads=2 / sliced_threads=0 / nr=0 / decimate=0 / interlaced=0 / bluray_compat=0 / constrained_intra=0 / bframes=11 / b_pyramid=2 / b_adapt=2 / b_bias=0 / direct=3 / weightb=1 / open_gop=0 / weightp=2 / keyint=250 / keyint_min=23 / scenecut=40 / intra_refresh=0 / rc_lookahead=60 / rc=2pass / mbtree=0 / bitrate=2485 / ratetol=1.0 / qcomp=0.70 / qpmin=0 / qpmax=69 / qpstep=4 / cplxblur=20.0 / qblur=0.5 / vbv_maxrate=14000 / vbv_bufsize=14000 / nal_hrd=none / filler=0 / ip_ratio=1.35 / pb_ratio=1.25 / aq=1:0.80
Language                    : English
Default                     : Yes
Forced                      : No

Audio #1
ID                          : 2
Format                      : AC-3
Format/Info                 : Audio Coding 3
Mode extension              : CM (complete main)
Format settings, Endianness : Big
Codec ID                    : A_AC3
Duration                    : 1h 32mn
Bit rate mode               : Constant
Bit rate                    : 448 Kbps
Channel(s)                  : 6 channels
Channel positions           : Front: L C R, Side: L R, LFE
Sampling rate               : 48.0 KHz
Frame rate                  : 31.250 fps (1536 spf)
Compression mode            : Lossy
Delay relative to video     : 879ms
Stream size                 : 296 MiB (13%)
Title                       : Dub | DD 5.1 @ 448 kbps - Blu-Ray RUS
Language                    : Russian
Default                     : Yes
Forced                      : No

Audio #2
ID                          : 3
Format                      : AC-3
Format/Info                 : Audio Coding 3
Mode extension              : CM (complete main)
Format settings, Endianness : Big
Codec ID                    : A_AC3
Duration                    : 1h 32mn
Bit rate mode               : Constant
Bit rate                    : 448 Kbps
Channel(s)                  : 6 channels
Channel positions           : Front: L C R, Side: L R, LFE
Sampling rate               : 48.0 KHz
Frame rate                  : 31.250 fps (1536 spf)
Compression mode            : Lossy
Stream size                 : 296 MiB (13%)
Title                       : Original | DD 5.1 @ 448 kbps
Language                    : English
Default                     : No
Forced                      : No

Text
ID                          : 4
Format                      : UTF-8
Codec ID                    : S_TEXT/UTF8
Codec ID/Info               : UTF-8 Plain Text
Language                    : English
Default                     : No
Forced                      : No

Menu
00:00:00.000                : :(01)00:00:00:000
00:06:23.841                : :(02)00:06:23:841
00:11:36.654                : :(03)00:11:36:654
00:18:00.412                : :(04)00:18:00:412
00:27:25.769                : :(05)00:27:25:769
00:34:27.065                : :(06)00:34:27:065
00:44:30.209                : :(07)00:44:30:209
00:54:44.030                : :(08)00:54:44:030
01:03:00.443                : :(09)01:03:00:443
01:09:18.154                : :(10)01:09:18:154
01:18:53.145                : :(11)01:18:53:145
01:26:54.334                : :(12)01:26:54:334
01:32:18.449                : :(13)01:32:18:449

pb.wtf



Скачать Скорость: Автобус 657 через торрент http://i66.fastpic.ru/big/2016/0128/c1/426adc249d5d563c6d348ec92fc5e2c1.png Скачать фильм Скорость: Автобус 657 через торрент бесплантно в хорошем качестве Описание: Все знают, что обокрасть Фрэнка Поупа, владельца казино и босса мафии — это самоубийство. Но однажды некогда преданный ему ... 5 10 1
Info! Золотая раздача, скачанное не засчитывается.
Торрент: Зарегистрирован [2016-01-28 04:32] · скачан: 142 раз
Статус: √ проверено
Размер: 2.18 GB
Как cкачать? Как скачать Скорость: Автобус 657 через торрент | qTorrent

% Раздел Тема Автор DL S | L
Фильмы 2015 [DVDrip, WEB-DLRip, HDrip] [ 2.18 GB ] Скорость: Автобус 657 / Heist [2015 BDRip-AVC от sokol_ok] DUB sokol_ok Скачать
2 | 0
Фильмы 2015 [DVDrip, WEB-DLRip, HDrip] [ 1.46 GB ] Скорость: Автобус 657 / Heist [2015 BDRip-AVC от sokol_ok] DUB sokol_ok Скачать
2 | 0
Фильмы 2015 [DVDrip, WEB-DLRip, HDrip] [ 1.46 GB ] Скорость: Автобус 657 / Heist [2015 BDRip-AVC] DUB potroks Скачать
1 | 0


Последний раз редактировалось: potroks (2016-01-28 06:55), всего редактировалось 4 раз(а)

28-11-2019 20:33  

Отключить всю рекламу на сайте

28-01-2016 04:37 Скорость: Автобус 657 Скачать торрент  

скриншоты чуть позжеpb.wtf



    Дорогой пользователь! Огромная просьба, поблагодарите релизера, оцените раздачу и оставьте свои комментарий, если Вы скачали Скорость: Автобус 657 через торрент бесплатно! Внесите свою лепту в развитие PiratBit!
    Комментировать посты могут только пользователи прошедшие не сложную регистрацию
    Показать сообщения:    

    Скорость: Автобус 657 через торрент
    Скачать бесплатно Скорость: Автобус 657
    Скорость: Автобус 657 скачать торрент
    Скорость: Автобус 657 смотреть онлайн
    Cкачать фильм Скорость: Автобус 657 бесплатно
    Скорость: Автобус 657 скачать торрент в хорошем качестве
    Скорость: Автобус 657 смотреть онлайн бесплатно в хорошем качестве


    Вы не можете начинать темы
    Вы не можете отвечать на сообщения
    Вы не можете редактировать свои сообщения
    Вы не можете удалять свои сообщения
    Вы не можете голосовать в опросах
    Вы не можете прикреплять файлы к сообщениям
    Вы можете скачивать файлы