Ссылка на приватное зеркало нашего сайта всего за 1$. Внимание количество ограничено!!!

2 сезон

iTunes

1 сезон

1

2 сезон

2 сезон

iTunes

1 сезон

RePack

30

Ultimate

ВАЖНО

ИГРА 18+

pack

RePack

MK11
pack

Забери бонус

RePack

jed

!!Акция!!

Alien_Rage

RePack

fifa19

RePack

Assassins Creed: Odyssey

RePack

NEED FOR SPEED™ PAYBACK

4 сезон

9 сезон

Бесстыжие 9 сезон

Все сериалы

все сериалы на PB.wtf

RePack

FAR CRY 5
  

Уроки Вьетнамской войны (Игорь Максимчук, Александр Седельников) [2015 г., документальный, военный, история, DVB, Русский] pb.wtf

Уроки Вьетнамской войны через торрент pb.wtf

Размер: 473 MB | Добавлен: 4 года 10 мес. назад | Торрент скачан:50 раз
Скачать  

28-01-2016 14:29 Уроки Вьетнамской войны Скачать торрент  

Уроки Вьетнамской войны

Год выпуска: 2015
Страна: Россия
Жанр: документальный, военный, история
Продолжительность: 00:25:30
Перевод: Не требуется Русский

Режиссер: Игорь Максимчук, Александр Седельников
Автор и ведущий: Леонид Млечин

Описание: Четыре десятилетия назад, 30 апреля 1975 года, закончилась война во Вьетнаме. Это была полная победа вьетнамских коммунистов не только над их соперниками на Юге страны, но и над Соединенными Штатами, которые в эту войну втянулись. Война дорого обошлась американцам, но самое важное: какие уроки извлекает страна из неудачи.

Качество: DVB
Формат: TS
Видео кодек: AVC
Аудио кодек: MP2
Видео: AVC, 720x576 (16:9), 25.000 fps, 2 273 Kbps (0.219 bit/pixel)
Аудио: MP2, 48.0 KHz, 2 ch, 192 Kbps, CBR (Russian)

Код:

Формат                                   : MPEG-TS
Размер файла                             : 473 Мбайт
Продолжительность                        : 25 м.
Режим общего битрейта                    : Переменный
Общий поток                              : 2595 Кбит/сек

Видео
Идентификатор                            : 1091 (0x443)
Идентификатор меню                       : 1090 (0x442)
Формат                                   : AVC
Формат/Информация                        : Advanced Video Codec
Профиль формата                          : Main@L3
Параметр CABAC формата                   : Да
Параметр ReFrames формата                : 3 кадра
Параметр GOP формата                     : M=4, N=28
Структура изображения                    : Frame
Идентификатор кодека                     : 27
Продолжительность                        : 25 м.
Битрейт                                  : 2273 Кбит/сек
Ширина                                   : 720 пикселей
Высота                                   : 576 пикселей
Соотношение сторон                       : 16:9
Частота кадров                           : 25,000 кадров/сек
Стандарт вещания                         : Component
Цветовое пространство                    : YUV
Субдискретизация насыщенности            : 4:2:0
Битовая глубина                          : 8 бит
Тип развёртки                            : Чересстрочная
Метод сохранения типа развёртки          : Чередующиеся поля
Порядок развёртки                        : Верхнее поле первое
Бит/(Пиксели*Кадры)                      : 0.219
Размер потока                            : 415 Мбайт (88%)
Цветовой диапазон                        : Limited
Основные цвета                           : BT.601 PAL
Характеристики трансфера                 : BT.470 System B, BT.470 System G
Коэффициенты матрицы                     : BT.601

Аудио
Идентификатор                            : 1092 (0x444)
Идентификатор меню                       : 1090 (0x442)
Формат                                   : MPEG Audio
Версия формата                           : Version 1
Профиль формата                          : Layer 2
Идентификатор кодека                     : 3
Продолжительность                        : 25 м.
Вид битрейта                             : Постоянный
Битрейт                                  : 192 Кбит/сек
Каналы                                   : 2 канала
Частота                                  : 48,0 КГц
Метод сжатия                             : С потерями
Задержка видео                           : 8 мс.
Размер потока                            : 35,0 Мбайт (7%)
Язык                                     : Russian
Язык, дополнительно                      : Clean effects

pb.wtf



Скачать Уроки Вьетнамской войны через торрент http://s019.radikal.ru/i616/1601/d7/d50e25d0ee74.png Скачать фильм Уроки Вьетнамской войны через торрент бесплантно в хорошем качестве Описание: Четыре десятилетия назад, 30 апреля 1975 года, закончилась война во Вьетнаме. Это была полная победа вьетнамских коммунистов не ... 7.8 10 4
Торрент: Зарегистрирован [2016-01-28 14:29] · скачан: 50 раз
Статус: √ проверено
Размер: 473 MB
Как cкачать? Как скачать Уроки Вьетнамской войны через торрент | qTorrent

28-11-2019 20:33  

Отключить всю рекламу на сайте

28-01-2016 16:14 Уроки Вьетнамской войны Скачать торрент  

Скорость в шоке.pb.wtf



    Дорогой пользователь! Огромная просьба, поблагодарите релизера, оцените раздачу и оставьте свои комментарий, если Вы скачали Уроки Вьетнамской войны через торрент бесплатно! Внесите свою лепту в развитие PiratBit!
    Комментировать посты могут только пользователи прошедшие не сложную регистрацию
    Показать сообщения:    

    Уроки Вьетнамской войны через торрент
    Скачать бесплатно Уроки Вьетнамской войны
    Уроки Вьетнамской войны скачать торрент
    Уроки Вьетнамской войны смотреть онлайн
    Cкачать фильм Уроки Вьетнамской войны бесплатно
    Уроки Вьетнамской войны скачать торрент в хорошем качестве
    Уроки Вьетнамской войны смотреть онлайн бесплатно в хорошем качестве


    Вы не можете начинать темы
    Вы не можете отвечать на сообщения
    Вы не можете редактировать свои сообщения
    Вы не можете удалять свои сообщения
    Вы не можете голосовать в опросах
    Вы не можете прикреплять файлы к сообщениям
    Вы можете скачивать файлы