Ссылка на приватное зеркало всего за 1$. Внимание количество ограничено!!!

OK

1+1

iTunes

мы

OK

1

WEB-DLRip

Джокер

Пифагор

Ведьмак / The Witcher сериал

iTunes

ПШазам

ОК

Оно 2

iTunes

30
pack

Вам бонус

ВАЖНО

!!Акция!!

Alien_RageХит недели

RePack

Resident Evil 21

ИГРА 18+

pack

RePack

jed

RePack

fifa19

RePack

Assassins Creed: Odyssey

RePack

NEED FOR SPEED™ PAYBACK

4 сезон

9 сезон

Бесстыжие 9 сезон

Все сериалы

все сериалы на PB.wtf

RePack

FAR CRY 5
  

Скорость: Автобус 657 / Heist (Скотт Манн) [2015 г., боевик, триллер, криминал, HDRip, Дубляж "Лицензия"] pb.wtf

Скорость: Автобус 657 через торрент pb.wtf

Размер: 696 MB | Добавлен: 3 года 11 мес. назад | Торрент скачан:141 раз
Скачать  

28-01-2016 18:28 Скорость: Автобус 657 Скачать торрент  

Скорость: Автобус 657 / Heist
Год выпуска: 2015
Страна: США / Emmett/Furla Films, Mass Hysteria Entertainment, Randall Emmett / George Furla Productions
Жанр: боевик, триллер, криминал
Продолжительность: 01:28:29
Перевод: Дубляж (Лицензия)

Режиссер: Скотт Манн

IMDB 6.10 (7676)


В ролях: Джеффри Дин Морган, Роберт Де Ниро, Кейт Босворт, Дэйв Батиста, Саммер Элтис, Джина Карано, Марк-Пол Госселаар, Моррис Честнат, Д.Б. Суини, Алисса Джулия Смит

Описание: Все знают, что обокрасть Фрэнка Поупа, владельца казино и босса мафии — это самоубийство. Но однажды некогда преданный ему крупье решается вынести из кассы казино несколько миллионов долларов. Все было продумано, но план не сработал. Скрываясь с места преступления, грабители захватывают автобус, полный заложников. На бешеной скорости автобус мчится к мексиканской границе. Топливо на пределе. На хвосте — мафия и полиция. И, кажется, выхода нет...

Качество: HDRip
Формат: AVI
Видео кодек: XviD
Аудио кодек: MP3
Видео: 640x272 (2.35:1), 25 fps, XviD build 50 ~962 kbps avg, 0.22 bit/pixel
Аудио: 48 kHz, MPEG Layer 3, 2 ch, ~128.00 kbps avg
скриншот   скриншот   скриншот   скриншот   скриншот   скриншот   скриншот   скриншот   скриншот   скриншот  

Общее
Полное имя : F:\кино\Скорость.Автобус 657.2015.HDRip.avi
Формат : AVI
Формат/Информация : Audio Video Interleave
Размер файла : 696 Мбайт
Продолжительность : 1 ч. 28 м.
Общий поток : 1100 Кбит/сек
Программа кодирования : VirtualDubMod 1.5.10.3 | www.virtualdub-fr.org || (build 2550/release)
Библиотека кодирования : VirtualDubMod build 2550/release

Видео
Идентификатор : 0
Формат : MPEG-4 Visual
Профиль формата : Advanced Simple@L5
Параметр BVOP формата : 2
Параметр QPel формата : Нет
Параметр GMC формата : Без точки перехода
Параметр матрицы формата : Default (H.263)
Идентификатор кодека : XVID
Идентификатор кодека/Подсказка : XviD
Продолжительность : 1 ч. 28 м.
Битрейт : 962 Кбит/сек
Ширина : 640 пикселей
Высота : 272 пикселя
Соотношение сторон : 2,35:1
Частота кадров : 25,000 кадров/сек
Цветовое пространство : YUV
Субдискретизация насыщенности : 4:2:0
Битовая глубина : 8 бит
Тип развёртки : Прогрессивная
Метод сжатия : С потерями
Бит/(Пиксели*Кадры) : 0.221
Размер потока : 609 Мбайт (87%)
Библиотека кодирования : XviD 1.2.1 (UTC 2008-12-04)

Аудио
Идентификатор : 1
Формат : MPEG Audio
Версия формата : Version 1
Профиль формата : Layer 3
Режим : Joint stereo
Расширение режима : MS Stereo
Идентификатор кодека : 55
Идентификатор кодека/Подсказка : MP3
Продолжительность : 1 ч. 28 м.
Вид битрейта : Постоянный
Битрейт : 128 Кбит/сек
Каналы : 2 канала
Частота : 48,0 КГц
Метод сжатия : С потерями
Размер потока : 81,0 Мбайт (12%)
Выравнивание : Соединение по промежуткам
Продолжительность промежутка : 40 мс. (1,00 видеокадр)
Время предзагрузки промежутка : 504 мс.
Библиотека кодирования : LAME3.99r
Настройки программы : -m j -V 4 -q 2 -lowpass 17 -b 128

pb.wtf



Скачать Скорость: Автобус 657 через торрент http://pic.kartinco.top/images/11/6nbsh.jpg Скачать фильм Скорость: Автобус 657 через торрент бесплантно в хорошем качестве Описание: Все знают, что обокрасть Фрэнка Поупа, владельца казино и босса мафии — это самоубийство. Но однажды некогда преданный ему крупье ... 9.3 10 7
Торрент: Зарегистрирован [2016-01-28 18:28] · скачан: 141 раз
Статус: √ проверено
Размер: 696 MB
Как cкачать? Как скачать Скорость: Автобус 657 через торрент | qTorrent

% Раздел Тема Автор DL S | L
Фильмы [HD 720p, 1080p] (Хороший звук DUB, MVO) [ 4.41 GB ] Скорость: Автобус 657 / Heist [2015 BDRip 720p] [GER Transfer] DUB + AVO - KORSAR kisa1980 Скачать
18 | 1
Фильмы 2015 [DVDrip, WEB-DLRip, HDrip] [ 1.46 GB ] Скорость: Автобус 657 / Heist [2015 BDRip] - [] Twi7ter Скачать
1 | 0
Фильмы (Blu-ray, BD-Remux, HDDVD) [ 16.54 GB ] Скорость: Автобус 657 / Heist [2015 Blu-ray 1080i Rus Transfer ] MihailHD Скачать
1 | 1
Фильмы 2015 [DVDrip, WEB-DLRip, HDrip] [ 2.18 GB ] Скорость: Автобус 657 / Heist [2015 BDRip-AVC от sokol_ok] DUB sokol_ok Скачать
2 | 0
Фильмы 2015 [DVDrip, WEB-DLRip, HDrip] [ 1.46 GB ] Скорость: Автобус 657 / Heist [2015 BDRip-AVC от sokol_ok] DUB sokol_ok Скачать
2 | 0
Фильмы 2015 [DVDrip, WEB-DLRip, HDrip] [ 1.46 GB ] Скорость: Автобус 657 / Heist [2015 BDRip] - [] Twi7ter Скачать
1 | 0
Фильмы 2015 [DVDrip, WEB-DLRip, HDrip] [ 1.46 GB ] Скорость: Автобус 657 / Heist [2015 BDRip-AVC] DUB potroks Скачать
1 | 0

28-11-2019 20:33  

Отключить всю рекламу на сайте

    Дорогой пользователь! Огромная просьба, поблагодарите релизера, оцените раздачу и оставьте свои комментарий, если Вы скачали Скорость: Автобус 657 через торрент бесплатно! Внесите свою лепту в развитие PiratBit!
    Комментировать посты могут только пользователи прошедшие не сложную регистрацию
    Показать сообщения:    

    Скорость: Автобус 657 через торрент
    Скачать бесплатно Скорость: Автобус 657
    Скорость: Автобус 657 скачать торрент
    Скорость: Автобус 657 смотреть онлайн
    Cкачать фильм Скорость: Автобус 657 бесплатно
    Скорость: Автобус 657 скачать торрент в хорошем качестве
    Скорость: Автобус 657 смотреть онлайн бесплатно в хорошем качестве


    Вы не можете начинать темы
    Вы не можете отвечать на сообщения
    Вы не можете редактировать свои сообщения
    Вы не можете удалять свои сообщения
    Вы не можете голосовать в опросах
    Вы не можете прикреплять файлы к сообщениям
    Вы можете скачивать файлы