новый адрес
Мега распродажа FORZA HORIZON 4 ULTIMATE+ВСЕ DLC+ОНЛАЙН всего за 499р. 349 руб. (супер цена). Внимание количество ограничено!!!

iTunes

1+1

iTunes

мы

iTunes

1

iTunes

Чернобыль

iTunes

Ральф против интернета

Лицензия

ПШазам

Лицензия

Игра престолов

Лицензия

30
pack

ВАЖНО

!!Акция!!

Alien_RageХит недели

RePack

Resident Evil 21

ИГРА 18+

pack

RePack

Metro:Exodus

!!Акция!!

Alien_Rage

RePack

fifa19

RePack

Assassins Creed: Odyssey

RePack

NEED FOR SPEED™ PAYBACK

3 сезон

9 сезон

Бесстыжие 9 сезон

Все сериалы

все сериалы на PB.wtf

RePack

FAR CRY 5
Ребята, катастрофически не хватает 1900р. для оплаты серверов за Октябрь (всвязи с блокировками трафик упал в 3 раза), 1-2р., выручайте.
  

Признать виновным (Игорь Вознесенский) [1983г., драма, криминал, TVRip] [Русский] pb.wtf

Признать виновным через торрент pb.wtf

Размер: 1.09 GB | Добавлен: 3 года 9 мес. назад | Торрент скачан:0 раз
Скачать  

29-01-2016 08:17 Признать виновным Скачать торрент  

Признать виновным
Год выпуска: 1983
Страна: СССР
Жанр: драма, криминал
Продолжительность: 01:16:17

  • Перевод: Не требуется [Русский]

Режиссер: Игорь Вознесенский
В ролях:
Александр Михайлов (Воронин), Владимир Шевельков (Николай Бойко), Игорь Рогачев (Виктор Владимиров), Александр Силин (Слава Горяев), Марина Яковлева (Юля Сафонова), Вера Сотникова (Ольга), Ирина Мирошниченко (Виктория Павловна, мать Коли), Валентин Печников (Заикин), Владимир Корецкий (Александр Бойко), Любовь Соколова (Марья Васильевна, бабушка Виктора Владимирова), Юрий Назаров (Матвей Горяев), Владимир Широков (Егор)
Описание:
Оперативник уголовного розыска Сергей Воронин занимает свою должность по призванию. Он создал клуб юных друзей милиции, в котором ребята занимаются спортом и встречаются с интересными людьми. Но его тревожит компания ребят, попавших по влияние циничного старшеклассника Николая Бойко, который «путает грабеж с шалостью».
Мать Николая, известная журналистка, слишком занята своей собственной работой, чтобы повлиять на сына, а у педагогов в школе нет претензий к успеваемости мальчика из благополучной семьи...
Правонарушителю все сходило с рук, потому что всегда находились защитники всем его проступкам, именно безнаказанность привела подростка к преступлению - он ранил ножом девушку, которая отказалась быть в его компании...




  • Тип релиза: TVRip
  • Формат: AVI
  • Видео кодек: XviD | Аудио кодек: MP3
  • Видео: XviD, 688x384 (16:9), 1847 kbps, 25 fps, 0,280 bpp
  • Аудио:MP3 / 2.0 / 48 kHz / 192 kbps /
General
Complete name : C:\торрент\тор\Priznat`_vinovnim.avi
Format : AVI
Format/Info : Audio Video Interleave
File size : 1.09 GiB
Duration : 1h 16mn
Overall bit rate : 2 049 Kbps
Writing application : VirtualDubModRus 1.5.10.2 (build 2542/release)
Writing library : VirtualDubMod build 2542/release

Video
ID : 0
Format : MPEG-4 Visual
Format profile : Advanced Simple@L5
Format settings, BVOP : 2
Format settings, QPel : No
Format settings, GMC : No warppoints
Format settings, Matrix : Default (MPEG)
Muxing mode : Packed bitstream
Codec ID : XVID
Codec ID/Hint : XviD
Duration : 1h 16mn
Bit rate : 1 847 Kbps
Width : 688 pixels
Height : 384 pixels
Display aspect ratio : 16:9
Frame rate : 25.000 fps
Color space : YUV
Chroma subsampling : 4:2:0
Bit depth : 8 bits
Scan type : Progressive
Compression mode : Lossy
Bits/(Pixel*Frame) : 0.280
Stream size : 1 008 MiB (90%)
Writing library : XviD 64

Audio
ID : 1
Format : MPEG Audio
Format version : Version 1
Format profile : Layer 3
Mode : Joint stereo
Mode extension : MS Stereo
Codec ID : 55
Codec ID/Hint : MP3
Duration : 1h 16mn
Bit rate mode : Constant
Bit rate : 192 Kbps
Channel(s) : 2 channels
Sampling rate : 48.0 KHz
Compression mode : Lossy
Stream size : 105 MiB (9%)
Alignment : Aligned on interleaves
Interleave, duration : 40 ms (1.00 video frame)
Interleave, preload duration : 504 ms
Writing library : LAME3.97
Encoding settings : -m j -V 4 -q 0 -b 192
pb.wtf



Скачать Признать виновным через торрент http://i65.fastpic.ru/big/2016/0129/b4/9fc867fe15f9bb005517fcfb20e9a9b4.jpg Скачать фильм Признать виновным через торрент бесплантно в хорошем качестве Описание: Оперативник уголовного розыска Сергей Воронин занимает свою должность по призванию. Он создал клуб юных друзей милиции, в котором ... 10 10 3
Info! Золотая раздача, скачанное не засчитывается.
Торрент: Зарегистрирован [2016-01-29 08:17] · скачан: 0 раз
Статус: √ проверено
Размер: 1.09 GB
Как cкачать? Как скачать Признать виновным через торрент | qTorrent

% Раздел Тема Автор DL S | L
Кино СССР [ 887 MB ] Признать виновным [1983 СССР TVRip-AVC] Bibendi Скачать
1 | 0
Фильмы 2006-2008 [ 1.37 GB ] Признайте меня виновным / Find Me Guilty [2006 история DVDRip] sergei_s.75 Скачать
1 | 0
Фильмы 2006-2008 [ 2.1 GB ] Признайте меня виновным / Find Me Guilty [2006 BDRip-AVC] MVO stalonе Скачать
1 | 0
Фильмы [HD 720p, 1080p] (Хороший звук DUB, MVO) [ 7.48 GB ] Признайте меня виновным / Find Me Guilty [2006 BDRip 720p] MVO [] potroks Скачать
1 | 0
Фильмы (WEB-DL 720p, 1080p) [ 4.77 GB ] Признайте меня виновным / Find Me Guilty [2006 HDTV 720р] smaster Скачать
1 | 0


>> Регистрируемся здесь <<






Отзывы и комментарии о схеме читаем и пишем здесь: ---> Отзывы и комментарии о схеме

Новые благодарочки в телеграм довольных пользователей:
скриншот   скриншот   скриншот   скриншот   скриншот

29-01-2016 08:20 Признать виновным Скачать торрент  

Релиз подгатовлен специально для БУДДАА!))) ахах)pb.wtf



    Дорогой пользователь! Огромная просьба, поблагодарите релизера, оцените раздачу и оставьте свои комментарий, если Вы скачали Признать виновным через торрент бесплатно! Внесите свою лепту в развитие PiratBit!
    Комментировать посты могут только пользователи прошедшие не сложную регистрацию
    Показать сообщения:    

    Признать виновным через торрент
    Скачать бесплатно Признать виновным
    Признать виновным скачать торрент
    Признать виновным смотреть онлайн
    Cкачать фильм Признать виновным бесплатно
    Признать виновным скачать торрент в хорошем качестве
    Признать виновным смотреть онлайн бесплатно в хорошем качестве


    Вы не можете начинать темы
    Вы не можете отвечать на сообщения
    Вы не можете редактировать свои сообщения
    Вы не можете удалять свои сообщения
    Вы не можете голосовать в опросах
    Вы не можете прикреплять файлы к сообщениям
    Вы можете скачивать файлы