MEGA SALE -50% FORZA HORIZON 4 ULTIMATE+ВСЕ DLC+ОНЛАЙН всего за 599р. 299 руб. (супер цена). Внимание количество ограничено!!!

iTunes

1+1

iTunes

мы

iTunes

1

iTunes

Чернобыль

1 сезон

Ральф против интернета

Лицензия

ПШазам

Лицензия

Игра престолов

Лицензия

30
pack

ВАЖНО

!!Акция!!

Alien_RageХит недели

RePack

Resident Evil 21

ИГРА 18+

pack

RePack

Metro:Exodus

!!Акция!!

Alien_Rage

RePack

fifa19

RePack

Assassins Creed: Odyssey

RePack

NEED FOR SPEED™ PAYBACK

3 сезон

9 сезон

Бесстыжие 9 сезон

Все сериалы

все сериалы на PB.wtf

RePack

FAR CRY 5
Ребята, катастрофически не хватает 7730р. для оплаты серверов за ИЮЛЬ (всвязи с блокировками трафик упал в 3 раза), 1-2р., выручайте.
  

Люблю тебя, чувак / I Love You, Man (Джон Гамбург / John Hamburg) [2009, США, Комедия, BDRip] Dub pb.wtf

Люблю тебя, чувак через торрент pb.wtf

Размер: 1.46 GB | Добавлен: 3 года 6 мес. назад | Торрент скачан:175 раз
Скачать  

29-01-2016 14:51 Люблю тебя, чувак Скачать торрент  

Люблю тебя, чувак / I Love You, Man
«Ищу друга... Геям просьба не беспокоиться»

Год выпуска: 2009
Выпущено: США / DreamWorks SKG
Жанр: комедия
Продолжительность: 01:44:46
Перевод: Профессиональный (полное дублирование)
Cубтитры: нет
Режиссер:
Джон Гамбург / John Hamburg
В ролях:
Пол Радд, Джейсон Сигел, Рашида Джонс, Сара Барнс, Грег Ливайн, Джейми Пресли, Джон Фавро, Джейн Куртин, Дж.К. Симмонс, Энди Самберг, Лу Ферриньо
Описание:
Успешный риэлтор Питер Клэйвен наконец-то сделал предложение женщине своей мечты и тут же столкнулся с неожиданной проблемой. У него нет лучшего друга, которому можно поручить важную миссию шафера на свадьбе. После череды специфических свиданий Питер наконец-то нашёл подходящего человека, полную себе противоположность, Сиднея. Да вот только благодаря новому другу Питер понял, что жил не правильно и по-настоящему не умел веселиться… и, похоже, передумал жениться.

Качество: BDRip
Формат: AVI
Видео кодек: XviD
Аудио кодек: AC3
Видео: 704x400 (1.76:1), 23.976 fps, XviD build 73 ~1533 kbps avg, 0.23 bit/pixel
Аудио: 48 kHz, AC3 Dolby Digital, 3/2 (L,C,R,l,r) + LFE ch, ~448.00 kbps avg

Код:

General
Complete name                            : D:\Lublu_tebya_chuvak_2009_BDRip_by_Dalemake.avi
Format                                   : AVI
Format/Info                              : Audio Video Interleave
File size                                : 1.46 GiB
Duration                                 : 1h 44mn
Overall bit rate                         : 1 991 Kbps
Writing application                      : VirtualDubMod 1.5.10.3 | www.virtualdub-fr.org || (build 2550/release)
Writing library                          : VirtualDubMod build 2550/release
[br]
Video
ID                                       : 0
Format                                   : MPEG-4 Visual
Format profile                           : Advanced Simple@L5
Format settings, BVOP                    : 1
Format settings, QPel                    : No
Format settings, GMC                     : No warppoints
Format settings, Matrix                  : Custom
Codec ID                                 : XVID
Codec ID/Hint                            : XviD
Duration                                 : 1h 44mn
Bit rate                                 : 1 534 Kbps
Width                                    : 704 pixels
Height                                   : 400 pixels
Display aspect ratio                     : 16:9
Frame rate                               : 23.976 fps
Color space                              : YUV
Chroma subsampling                       : 4:2:0
Bit depth                                : 8 bits
Scan type                                : Progressive
Compression mode                         : Lossy
Bits/(Pixel*Frame)                       : 0.227
Stream size                              : 1.12 GiB (77%)
Writing library                          : XviD 73
[br]
Audio
ID                                       : 1
Format                                   : AC-3
Format/Info                              : Audio Coding 3
Mode extension                           : CM (complete main)
Format settings, Endianness              : Big
Codec ID                                 : 2000
Duration                                 : 1h 44mn
Bit rate mode                            : Constant
Bit rate                                 : 448 Kbps
Channel(s)                               : 6 channels
Channel positions                        : Front: L C R, Side: L R, LFE
Sampling rate                            : 48.0 KHz
Bit depth                                : 16 bits
Compression mode                         : Lossy
Stream size                              : 336 MiB (22%)
Alignment                                : Split accross interleaves
Interleave, duration                     : 42 ms (1.00 video frame)
Interleave, preload duration             : 500 ms

pb.wtf



Скачать Люблю тебя, чувак через торрент http://i3.fastpic.ru/big/2009/1023/ec/473bdbf0c1f7bd8900a1a3353048eeec.png Скачать фильм Люблю тебя, чувак через торрент бесплантно в хорошем качестве Описание:Успешный риэлтор Питер Клэйвен наконец-то сделал предложение женщине своей мечты и тут же столкнулся с неожиданной проблемой. У ... 9.8 10 4
Торрент: Зарегистрирован [2016-01-29 14:51] · скачан: 175 раз
Статус: √ проверено
Размер: 1.46 GB
Как cкачать? Как скачать Люблю тебя, чувак через торрент | qTorrent

% Раздел Тема Автор DL S | L
Фильмы (Blu-ray, BD-Remux, HDDVD) [ 25.01 GB ] Люблю тебя чувак / I Love You Man [2009 Blu-Ray Remux DUB DVO Original] кэп Скачать
1 | 0
Фильмы [HD 720p, 1080p] (Хороший звук DUB, MVO) [ 6.47 GB ] Люблю тебя чувак / I Love You Man [2009 BDRip DUB + Оригинал] ~Relizer~ Скачать
1 | 0


>> Регистрируемся здесь <<






Отзывы и комментарии о схеме читаем и пишем здесь: ---> Отзывы и комментарии о схеме

Новые благодарочки в телеграм довольных пользователей:
скриншот   скриншот   скриншот   скриншот   скриншот
    Дорогой пользователь! Огромная просьба, поблагодарите релизера, оцените раздачу и оставьте свои комментарий, если Вы скачали Люблю тебя, чувак через торрент бесплатно! Внесите свою лепту в развитие PiratBit!
    Комментировать посты могут только пользователи прошедшие не сложную регистрацию
    Показать сообщения:    

    Люблю тебя, чувак через торрент
    Скачать бесплатно Люблю тебя, чувак
    Люблю тебя, чувак скачать торрент
    Люблю тебя, чувак смотреть онлайн
    Cкачать фильм Люблю тебя, чувак бесплатно
    Люблю тебя, чувак скачать торрент в хорошем качестве
    Люблю тебя, чувак смотреть онлайн бесплатно в хорошем качестве


    Вы не можете начинать темы
    Вы не можете отвечать на сообщения
    Вы не можете редактировать свои сообщения
    Вы не можете удалять свои сообщения
    Вы не можете голосовать в опросах
    Вы не можете прикреплять файлы к сообщениям
    Вы можете скачивать файлы