Ссылка на приватное зеркало всего за 1$. Внимание количество ограничено!!!

iTunes

iTunes

iTunes

1

iTunes

iTunes

iTunes

iTunes

iTunes

30
pack

$ от Little Big

ВАЖНО

!!Акция!!

Alien_RageХит недели

RePack

Resident Evil 21

ИГРА 18+

pack

RePack

jed

!!Акция!!

Alien_Rage

RePack

fifa19

RePack

Assassins Creed: Odyssey

RePack

NEED FOR SPEED™ PAYBACK

4 сезон

9 сезон

Бесстыжие 9 сезон

Все сериалы

все сериалы на PB.wtf

RePack

FAR CRY 5
  

Вокзал / Terminus (Marc Furmie) [2015, Австралия, фантастика, WEB-DL 720p, Любительский (одноголосый)[datynet] + ENG pb.wtf

Вокзал через торрент pb.wtf

Размер: 3.29 GB | Добавлен: 4 года 5 мес. назад | Торрент скачан:147 раз
Скачать  

30-01-2016 04:26 Вокзал Скачать торрент  

Вокзал / Terminus


  • Год выпуска: 2015
  • Страна: Австралия
  • Жанр: фантастика
  • Продолжительность: 01:33:40
  • Перевод: Любительский (одноголосый)[datynet]
  • Субтитры: английские
  • Режиссер: Marc Furmie
  • В ролях:

    Jai Koutrae (David Chamberlain), Кендра Эпплтон (Annabelle Chamberlain), Тодд Ласанс (Zach), Брен Фостер (Agent Stipe), Брендан Клиркин (Ned Wilcox), Vincent Andriano (O'Mally), Уильям Эммонс (Agent Lubinski), Кэтерин Хикс (Jane Chamberlain), Стив Ле Маркванд (Sherriff Williams), John Manning (Tony Cerillo), Tatiana Ikasovic (Vera), Аарон Скалли (Mickey)


  • Оказавшись, в результате несчастного случая, на грани между жизнью и смертью, Дэвид Чемберлен делает беспрецедентное открытие, которое предопределит не только судьбу его семьи, но и судьбу всего человечества...
  • Рейтинг:



  • Качество: WEB-DL 720p
  • Формат: :MKV
  • Видео кодек: AVC
  • Аудио кодек: AC3
  • Видео: 1280x528 (2.40:1), 4260 kbps, 24 fps, 0,263 bpp
  • Аудио №1: русский / 5.1 / 48 kHz / 384 kbps / 16 bit |[datynet]|
  • Аудио №2: английский / 5.1 / 48 kHz / 384 kbps / 16 bit
  • Релиз от: GEKADOL

    Код:

    General
    Unique ID                                : 236117928073404849834437985407520596738 (0xB1A2A8A7A98EC0DCB4C433C13879E302)
    Complete name                            : G:\Vokzal.2015.WEB-DL 720p_by_grab777.mkv
    Format                                   : Matroska
    Format version                           : Version 2
    File size                                : 3.29 GiB
    Duration                                 : 1h 33mn
    Overall bit rate                         : 5 022 Kbps
    Movie name                               : Вокзал / Terminus.2015.WEB-DL 720p_by_grab777
    Encoded date                             : UTC 2016-01-29 14:08:29
    Writing application                      : mkvmerge v5.8.0 ('No Sleep / Pillow') built on Sep  2 2012 15:37:04
    Writing library                          : XviD4PSP 6.0 / 54.29.105
    Attachment                               : Yes / Yes / Yes / Yes

    Video
    ID                                       : 1
    Format                                   : AVC
    Format/Info                              : Advanced Video Codec
    Format profile                           : High@L4.1
    Format settings, CABAC                   : Yes
    Format settings, ReFrames                : 4 frames
    Codec ID                                 : V_MPEG4/ISO/AVC
    Duration                                 : 1h 33mn
    Bit rate                                 : 4 260 Kbps
    Width                                    : 1 280 pixels
    Height                                   : 528 pixels
    Display aspect ratio                     : 2.40:1
    Frame rate                               : 24.000 fps
    Color space                              : YUV
    Chroma subsampling                       : 4:2:0
    Bit depth                                : 8 bits
    Scan type                                : Progressive
    Bits/(Pixel*Frame)                       : 0.263
    Stream size                              : 2.72 GiB (83%)
    Title                                    : Terminus.2015.WEB-DL 720p_by_grab777
    Writing library                          : x264 core 142 r2431+42 c69a006 tMod [8-bit@all X86_64]
    Encoding settings                        : cabac=1 / ref=3 / deblock=1:-3:-3 / analyse=0x3:0x133 / me=umh / subme=8 / psy=1 / fade_compensate=0.00 / psy_rd=1.00:1.00 / mixed_ref=1 / me_range=48 / chroma_me=1 / trellis=2 / 8x8dct=1 / cqm=0 / deadzone=21,11 / fast_pskip=0 / chroma_qp_offset=-4 / threads=16 / lookahead_threads=2 / sliced_threads=0 / nr=0 / decimate=1 / interlaced=0 / bluray_compat=0 / constrained_intra=0 / fgo=0 / bframes=3 / b_pyramid=2 / b_adapt=2 / b_bias=0 / direct=3 / weightb=1 / open_gop=0 / weightp=2 / keyint=240 / keyint_min=24 / scenecut=40 / intra_refresh=0 / rc_lookahead=150 / rc=2pass / mbtree=1 / bitrate=4260 / ratetol=1.0 / qcomp=0.60 / qpmin=0:0:0 / qpmax=69:69:69 / qpstep=4 / cplxblur=20.0 / qblur=0.5 / vbv_maxrate=62500 / vbv_bufsize=78125 / nal_hrd=none / filler=0 / ip_ratio=1.20 / aq=2:0.70 / aq-sensitivity=10.00 / aq-factor=1.00:1.00:1.00 / aq2=0 / aq3=0
    Language                                 : English
    Default                                  : Yes
    Forced                                   : No
    Matrix coefficients                      : BT.709-5, BT.1361, IEC 61966-2-4 709, SMPTE RP177

    Audio #1
    ID                                       : 2
    Format                                   : AC-3
    Format/Info                              : Audio Coding 3
    Mode extension                           : CM (complete main)
    Codec ID                                 : A_AC3
    Duration                                 : 1h 33mn
    Bit rate mode                            : Constant
    Bit rate                                 : 384 Kbps
    Channel(s)                               : 6 channels
    Channel positions                        : Front: L C R, Side: L R, LFE
    Sampling rate                            : 48.0 KHz
    Bit depth                                : 16 bits
    Compression mode                         : Lossy
    Delay relative to video                  : 27ms
    Stream size                              : 257 MiB (8%)
    Title                                    : AVO  [datynet]
    Language                                 : Russian
    Default                                  : Yes
    Forced                                   : No

    Audio #2
    ID                                       : 3
    Format                                   : AC-3
    Format/Info                              : Audio Coding 3
    Mode extension                           : CM (complete main)
    Codec ID                                 : A_AC3
    Duration                                 : 1h 33mn
    Bit rate mode                            : Constant
    Bit rate                                 : 384 Kbps
    Channel(s)                               : 6 channels
    Channel positions                        : Front: L C R, Side: L R, LFE
    Sampling rate                            : 48.0 KHz
    Bit depth                                : 16 bits
    Compression mode                         : Lossy
    Stream size                              : 257 MiB (8%)
    Title                                    : Original
    Language                                 : English
    Default                                  : No
    Forced                                   : No

    Text
    ID                                       : 4
    Format                                   : UTF-8
    Codec ID                                 : S_TEXT/UTF8
    Codec ID/Info                            : UTF-8 Plain Text
    Language                                 : English
    Default                                  : No
    Forced                                   : No

    Menu
    00:00:00.000                             : en:Opening Sequence
    00:05:57.000                             : en:Jesus Dad
    00:10:46.000                             : en:Guess you Forgot
    00:17:23.000                             : en:Looking for my Dad
    00:22:34.000                             : en:Not Hungry
    00:29:20.000                             : en:Messy Face
    00:33:50.000                             : en:What's This?
    00:40:08.000                             : en:Get some water
    00:46:32.000                             : en:So many Pies
    00:52:03.000                             : en:What to do
    01:00:15.000                             : en:Need a favor
    01:05:49.000                             : en:Brought a Friend
    01:12:04.000                             : en:Wounded in Combat
    01:17:10.000                             : en:Its Okay
    01:22:10.000                             : en:Come on Dad
    01:26:55.000                             : en:End Credits




    Скриншоты:



    pb.wtf



  • Скачать Вокзал через торрент http://i67.fastpic.ru/big/2016/0130/1e/95c799d75557af7e4a411a91a191d51e.jpg Скачать фильм Вокзал через торрент бесплантно в хорошем качестве qw.png Оказавшись, в результате несчастного случая, на грани между жизнью и смертью, Дэвид Чемберлен делает беспрецедентное открытие, ... 8 10 2
    Торрент: Зарегистрирован [2016-01-30 04:26] · скачан: 147 раз
    Статус: T временная
    Размер: 3.29 GB
    Как cкачать? Как скачать Вокзал через торрент | qTorrent

    % Раздел Тема Автор DL S | L
    T Фильмы (WEB-DL 720p, 1080p) [ 3.48 GB ] Вокзал / Terminus [2015 Австралия WEB-DL 1080p Любительский [datynet] + ENG GEKADOL Скачать
    1 | 0

    28-11-2019 20:33  

    Отключить всю рекламу на сайте

    30-01-2016 08:47 Вокзал Скачать торрент  

    хрень то какая....pb.wtf



    30-01-2016 10:55 Вокзал Скачать торрент  

    Вокзал базар?pb.wtf



      Дорогой пользователь! Огромная просьба, поблагодарите релизера, оцените раздачу и оставьте свои комментарий, если Вы скачали Вокзал через торрент бесплатно! Внесите свою лепту в развитие PiratBit!
      Комментировать посты могут только пользователи прошедшие не сложную регистрацию
      Показать сообщения:    

      Вокзал через торрент
      Скачать бесплатно Вокзал
      Вокзал скачать торрент
      Вокзал смотреть онлайн
      Cкачать фильм Вокзал бесплатно
      Вокзал скачать торрент в хорошем качестве
      Вокзал смотреть онлайн бесплатно в хорошем качестве


      Вы не можете начинать темы
      Вы не можете отвечать на сообщения
      Вы не можете редактировать свои сообщения
      Вы не можете удалять свои сообщения
      Вы не можете голосовать в опросах
      Вы не можете прикреплять файлы к сообщениям
      Вы можете скачивать файлы