Ссылка на приватное зеркало нашего сайта всего за 1$. Внимание количество ограничено!!!

2 сезон

iTunes

1 сезон

1

2 сезон

2 сезон

iTunes

1 сезон

RePack

30

Новинка

ВАЖНО

ИГРА 18+

pack

RePack

MK11
pack

Забери бонус

RePack

jed

!!Акция!!

Alien_Rage

RePack

fifa19

RePack

Assassins Creed: Odyssey

RePack

NEED FOR SPEED™ PAYBACK

4 сезон

9 сезон

Бесстыжие 9 сезон

Все сериалы

все сериалы на PB.wtf

RePack

FAR CRY 5
  

Век Адалин / The Age of Adaline (Ли Толанд Кригер) [2015, драма, мелодрама, Blu-Ray Remux 1080p] [DUB] [Лицензия / iTunes] + [Sub] (Eng) pb.wtf

Век Адалин через торрент pb.wtf

Размер: 22.58 GB | Добавлен: 4 года 10 мес. назад | Торрент скачан:93 раза
Скачать  

30-01-2016 18:06 Век Адалин Скачать торрент  

Век Адалин / The Age of Adalineслоган «The world has changed in the last century. Adaline has not»
Год выпуска: 2015
Страна: США
Жанр: драма, мелодрама
Продолжительность: 01:52:30
Перевод: Дублированный [Лицензия / iTunes]
субтитры: Английские

Режиссер: Ли Толанд Кригер

В ролях: Блейк Лайвли, Михил Хаушман, Кэти Бейкер, Харрисон Форд, Эллен Бёрстин, Аманда Крю, Линда Бойд, Хью Росс, Ричард Хэрмон, Фульвио Чечере

Описание: По сюжету главная героиня родилась вместе с XX веком и живет на свете уже сто лет, но при этом не стареет. Несмотря на свою долгую жизнь, Аделайн так и не смогла найти любимого человека. Однако наконец-то она встречает мужчину, ради которого сможет снова стать смертной и состариться вместе с ним.



Качество: Blu-Ray Remux 1080p
Формат видео: MKV
Видео кодек: AVC
Аудио кодек: AC3, DTS
Видео: MPEG-4 AVC, 27.1 Mbps, 1920x1080, 23.976 fps
Аудио #1: 48.0 KHz, AC3, 384 Kb/s, 6 ch [Лицензия / iTunes]
Аудио #2: 48.0 KHz, AC3, 192 Kb/s, 2 ch [ENG]
Аудио #3: 48.0 KHz, AC3, 448 Kb/s, 6 ch [ENG]

Код:

General
Unique ID                                : 234546832507484584145416267993627733749 (0xB07413A9BCB97B799694FBD66C2FAEF5)
Complete name                            : E:\INTERNET\The.Age.of.Adaline.2015.Blu-ray.1080p.MPEG2.DD5.1-DIY@HDArea.mkv
Format                                   : Matroska
Format version                           : Version 4 / Version 2
File size                                : 22.6 GiB
Duration                                 : 1h 52mn
Overall bit rate mode                    : Variable
Overall bit rate                         : 28.7 Mbps
Encoded date                             : UTC 2016-01-30 16:23:49
Writing application                      : mkvmerge v8.5.1 ('Where you lead I will follow') 64bit
Writing library                          : libebml v1.3.3 + libmatroska v1.4.4

Video
ID                                       : 1
Format                                   : MPEG Video
Format version                           : Version 2
Format profile                           : Main@High
Format settings, BVOP                    : Yes
Format settings, Matrix                  : Default
Format settings, GOP                     : M=3, N=15
Codec ID                                 : V_MPEG2
Codec ID/Info                            : MPEG 1 or 2 Video
Duration                                 : 1h 52mn
Bit rate mode                            : Variable
Bit rate                                 : 27.1 Mbps
Maximum bit rate                         : 36.0 Mbps
Width                                    : 1 920 pixels
Height                                   : 1 080 pixels
Display aspect ratio                     : 16:9
Frame rate mode                          : Constant
Frame rate                               : 23.976 fps
Color space                              : YUV
Chroma subsampling                       : 4:2:0
Bit depth                                : 8 bits
Scan type                                : Progressive
Compression mode                         : Lossy
Bits/(Pixel*Frame)                       : 0.545
Time code of first frame                 : 00:00:00:00
Time code source                         : Group of pictures header
GOP, Open/Closed                         : Closed
Stream size                              : 21.3 GiB (94%)
Default                                  : Yes
Forced                                   : No

Audio #1
ID                                       : 2
Format                                   : AC-3
Format/Info                              : Audio Coding 3
Mode extension                           : CM (complete main)
Format settings, Endianness              : Big
Codec ID                                 : A_AC3
Duration                                 : 1h 52mn
Bit rate mode                            : Constant
Bit rate                                 : 384 Kbps
Channel(s)                               : 6 channels
Channel positions                        : Front: L C R, Side: L R, LFE
Sampling rate                            : 48.0 KHz
Compression mode                         : Lossy
Stream size                              : 310 MiB (1%)
Title                                    : iTunes
Language                                 : Russian
Default                                  : Yes
Forced                                   : No

Audio #2
ID                                       : 3
Format                                   : AC-3
Format/Info                              : Audio Coding 3
Mode extension                           : CM (complete main)
Format settings, Endianness              : Big
Codec ID                                 : A_AC3
Duration                                 : 1h 52mn
Bit rate mode                            : Constant
Bit rate                                 : 192 Kbps
Channel(s)                               : 2 channels
Channel positions                        : Front: L R
Sampling rate                            : 48.0 KHz
Compression mode                         : Lossy
Stream size                              : 155 MiB (1%)
Language                                 : English
Default                                  : No
Forced                                   : No

Audio #3
ID                                       : 4
Format                                   : AC-3
Format/Info                              : Audio Coding 3
Mode extension                           : CM (complete main)
Format settings, Endianness              : Big
Codec ID                                 : A_AC3
Duration                                 : 1h 52mn
Bit rate mode                            : Constant
Bit rate                                 : 448 Kbps
Channel(s)                               : 6 channels
Channel positions                        : Front: L C R, Side: L R, LFE
Sampling rate                            : 48.0 KHz
Compression mode                         : Lossy
Stream size                              : 361 MiB (2%)
Language                                 : English
Default                                  : No
Forced                                   : No

Text #1
ID                                       : 5
Format                                   : UTF-8
Codec ID                                 : S_TEXT/UTF8
Codec ID/Info                            : UTF-8 Plain Text
Language                                 : English
Default                                  : No
Forced                                   : No

Text #2
ID                                       : 6
Format                                   : UTF-8
Codec ID                                 : S_TEXT/UTF8
Codec ID/Info                            : UTF-8 Plain Text
Title                                    : SDH
Language                                 : English
Default                                  : No
Forced                                   : No

Menu
00:00:00.000                             : en:00:00:00.000
00:06:28.263                             : en:00:06:28.263
00:13:29.809                             : en:00:13:29.809
00:20:51.834                             : en:00:20:51.834
00:28:10.897                             : en:00:28:10.897
00:35:38.303                             : en:00:35:38.303
00:43:37.615                             : en:00:43:37.615
00:50:41.246                             : en:00:50:41.246
00:59:51.921                             : en:00:59:51.921
01:08:49.750                             : en:01:08:49.750
01:17:02.826                             : en:01:17:02.826
01:24:27.312                             : en:01:24:27.312
01:31:29.108                             : en:01:31:29.108
01:38:35.660                             : en:01:38:35.660
01:41:42.179                             : en:01:41:42.179
01:45:42.753                             : en:01:45:42.753

pb.wtf



Скачать Век Адалин через торрент http://i69.fastpic.ru/big/2015/0515/08/39bc73e120b53d075b0b42909ab8f508.jpg Скачать фильм Век Адалин через торрент бесплантно в хорошем качестве Описание: По сюжету главная героиня родилась вместе с XX веком и живет на свете уже сто лет, но при этом не стареет. Несмотря на свою ... 8.2 10 6
Торрент: Зарегистрирован [2016-01-30 18:06] · скачан: 93 раз
Статус: √ проверено
Размер: 22.58 GB
Как cкачать? Как скачать Век Адалин через торрент | qTorrent

% Раздел Тема Автор DL S | L
Фильмы 2015 [DVDrip, WEB-DLRip, HDrip] [ 1.97 GB ] Век Адалин / The Age of Adaline [2015 HDRip-AVC] $-DRON-$ Скачать
1 | 0
Фильмы 2015 [DVDrip, WEB-DLRip, HDrip] [ 1.45 GB ] Век Адалин / The Age of Adaline [2015 HDRip] $-DRON-$ Скачать
1 | 0
Фильмы 2015 [DVDrip, WEB-DLRip, HDrip] [ 1.41 GB ] Век Адалин / The Age of Adaline [2015 BDRip-AVC] Dub potroks Скачать
2 | 0
Фильмы 2015 [DVDrip, WEB-DLRip, HDrip] [ 2.13 GB ] Век Адалин / The Age of Adaline [2015 BDRip-AVC] Dub potroks Скачать
1 | 0
Фильмы 2015 [DVDrip, WEB-DLRip, HDrip] [ 2.18 GB ] Век Адалин / The Age of Adaline [2015 HDRip ""] coc900 Скачать
2 | 0
Фильмы 2015 [DVDrip, WEB-DLRip, HDrip] [ 1.45 GB ] Век Адалин / The Age of Adaline [2015 HDRip] killermax2013 Скачать
1 | 0
Фильмы с украинским озвучиванием [ 1.45 GB ] Век Адалин / Вік Аделайн / The Age of Adaline [2015 BDRip-AVC] [Ukr DUB] killermax2013 Скачать
1 | 0

28-11-2019 20:33  

Отключить всю рекламу на сайте

30-01-2016 18:21 Век Адалин Скачать торрент  

Хороший фильм для субботнего вечера!pb.wtf



    Дорогой пользователь! Огромная просьба, поблагодарите релизера, оцените раздачу и оставьте свои комментарий, если Вы скачали Век Адалин через торрент бесплатно! Внесите свою лепту в развитие PiratBit!
    Комментировать посты могут только пользователи прошедшие не сложную регистрацию
    Показать сообщения:    

    Век Адалин через торрент
    Скачать бесплатно Век Адалин
    Век Адалин скачать торрент
    Век Адалин смотреть онлайн
    Cкачать фильм Век Адалин бесплатно
    Век Адалин скачать торрент в хорошем качестве
    Век Адалин смотреть онлайн бесплатно в хорошем качестве


    Вы не можете начинать темы
    Вы не можете отвечать на сообщения
    Вы не можете редактировать свои сообщения
    Вы не можете удалять свои сообщения
    Вы не можете голосовать в опросах
    Вы не можете прикреплять файлы к сообщениям
    Вы можете скачивать файлы