Ссылка на приватное зеркало всего за 1$. Внимание количество ограничено!!!

OK

1+1

iTunes

мы

OK

1

WEB-DLRip

Джокер

Пифагор

Ведьмак / The Witcher сериал

Лицензия

ПШазам

ОК

Оно 2

iTunes

30
pack

Вам бонус

ВАЖНО

!!Акция!!

Alien_RageХит недели

RePack

Resident Evil 21

ИГРА 18+

pack

RePack

jed

!!Акция!!

Alien_Rage

RePack

fifa19

RePack

Assassins Creed: Odyssey

RePack

NEED FOR SPEED™ PAYBACK

4 сезон

9 сезон

Бесстыжие 9 сезон

Все сериалы

все сериалы на PB.wtf

RePack

FAR CRY 5
  

Секретные материалы / The X-Files / Сезон: 10 / Серии: 1-3 из 6 (Крис Картер, Дэрин Морган, Глен Морган) [2016, США, фантастика, триллер, драма, WEBRip 720p] DVO [Кубик в Кубе] + Original pb.wtf

Секретные материалы через торрент pb.wtf

Размер: 2.96 GB | Добавлен: 3 года 11 мес. назад | Торрент скачан:22 раза
Скачать  

30-01-2016 22:39 Секретные материалы Скачать торрент  

Секретные материалы / The X-Files
«The truth is still out there»
Год выпуска: 2016
Страна: США
Жанр: фантастика, триллер, драма, детектив
Продолжительность: 00:43:57
Перевод:
|Профессиональный (двухголосый, закадровый) Кубик в Кубе|
Субтитры: английские

Режиссер: Крис Картер / Chris Carter, Дэрин Морган / Darin Morgan, Глен Морган / Glen Morgan
В ролях: Дэвид Духовны (Fox Mulder), Джиллиан Андерсон (Dana Scully), Митч Пилледжи (Walter Skinner), Уильям Б. Дэвис (Smoking Man), Робби Амелл (Agent Miller), Джоэл МакХэйл (Tad O'Malley), Эндрю Моргадо (Charlie Scully), Лорен Эмброуз (Agent Einstein), Гардинер Миллар (Man in Suit), Ализа Веллани (Sandeep), Даниэла Диб (Mulders Dance Partner), Шейла Ларкен (Margaret Scully)
Описание:
Специальные агенты ФБР, Фокс Малдер и Дана Скалли, снова работают вместе, чтобы расследовать странные и необъяснимые дела, связанные с паранормальными явлениями.

Рейтинг

Качество: WEBRip 720p
Формат: MKV
Видео кодек: AVC
Аудио кодек: AC3
Видео: AVC, 1280x720 (16:9), 2304 kbps, 23,976 fps, 0,104 bpp
Аудио №1: русский / AC3 / 5.1 / 48 kHz / 384 kbps / 16 bit |Кубик в Кубе|
Аудио №2: английский / AC3 / 5.1 / 48 kHz / 384 kbps / 16 bit
Озвучка: Кубик в Кубе
Работа со звуком: messafan
Оформление: Messa-fan

Код:

General
Unique ID                                : 254857250627060911067627183912915339287 (0xBFBBB896E8A8BDACB5D97294A0B48817)
Complete name                            : The.X-Files.S10.720p.WEBRip.CasStudio.TV\The.X-Files.S10E01.My.Struggle.720p.WEBRip.CasStudio.TV.mkv
Format                                   : Matroska
Format version                           : Version 4 / Version 2
File size                                : 986 MiB
Duration                                 : 43mn 57s
Overall bit rate                         : 3 135 Kbps
Movie name                               : The X-Files 10x01 (My Struggle) - release by messafan for CasStudio.TV
Encoded date                             : UTC 2016-01-30 22:19:17
Writing application                      : mkvmerge v6.7.0 ('Back to the Ground') 64bit built on Jan  8 2014 15:10:52
Writing library                          : libebml v1.3.0 + libmatroska v1.4.1

Video
ID                                       : 1
Format                                   : AVC
Format/Info                              : Advanced Video Codec
Format profile                           : High@L3.1
Format settings, CABAC                   : Yes
Format settings, ReFrames                : 5 frames
Codec ID                                 : V_MPEG4/ISO/AVC
Duration                                 : 43mn 57s
Bit rate                                 : 2 304 Kbps
Width                                    : 1 280 pixels
Height                                   : 720 pixels
Display aspect ratio                     : 16:9
Frame rate mode                          : Variable
Frame rate                               : 23.976 fps
Color space                              : YUV
Chroma subsampling                       : 4:2:0
Bit depth                                : 8 bits
Scan type                                : Progressive
Bits/(Pixel*Frame)                       : 0.104
Stream size                              : 725 MiB (74%)
Title                                    : The.X-Files.S10E01.My.Struggle.720p.HULU.WEBRip.DD5.1.H.264-NTb
Language                                 : Russian
Default                                  : Yes
Forced                                   : No

Audio #1
ID                                       : 2
Format                                   : AC-3
Format/Info                              : Audio Coding 3
Mode extension                           : CM (complete main)
Codec ID                                 : A_AC3
Duration                                 : 43mn 57s
Bit rate mode                            : Constant
Bit rate                                 : 384 Kbps
Channel(s)                               : 6 channels
Channel positions                        : Front: L C R, Side: L R, LFE
Sampling rate                            : 48.0 KHz
Bit depth                                : 16 bits
Compression mode                         : Lossy
Stream size                              : 121 MiB (12%)
Title                                    : KvK 5.1
Language                                 : Russian
Default                                  : Yes
Forced                                   : No

Audio #2
ID                                       : 3
Format                                   : AC-3
Format/Info                              : Audio Coding 3
Mode extension                           : CM (complete main)
Codec ID                                 : A_AC3
Duration                                 : 43mn 57s
Bit rate mode                            : Constant
Bit rate                                 : 384 Kbps
Channel(s)                               : 6 channels
Channel positions                        : Front: L C R, Side: L R, LFE
Sampling rate                            : 48.0 KHz
Bit depth                                : 16 bits
Compression mode                         : Lossy
Stream size                              : 121 MiB (12%)
Title                                    : English 5.1 (from webdl)
Language                                 : English
Default                                  : No
Forced                                   : No

Text
ID                                       : 4
Format                                   : UTF-8
Codec ID                                 : S_TEXT/UTF8
Codec ID/Info                            : UTF-8 Plain Text
Title                                    : Eng sub
Language                                 : English
Default                                  : No
Forced                                   : No


  • Съемки шести эпизодов десятого сезона стартовали 8 июня 2015 года в Ванкувере.


  • Внимание! Раздача ведётся путём добавления новых серий; при каждом добавлении создётся новый торрент. Чтобы начать докачку новой серии, пользователям необходимо сделать следующее:
    (1) остановить скачивание,
    (2) удалить старый торрент у себя из клиента (старые серии удалять не надо),
    (3) скачать новый торрент и запустить его у себя в клиенте вместо старого, при этом указать клиенту путь в старую папку куда и должно происходить скачивание новых серий.
    Ваш клиент при этом должен произвести хеширование (проверку) старой папки (если не производит сам - помогите ему сделать это), и будет докачивать только те серии которых у вас ещё нет. Старые серии при этом не удаляются, а продолжают раздаваться!
    Eсли вы уже удалили старые серии, то предотвратить повторную закачку старых серий можно, отжав галочку в соответсвующих местах при запуске нового торрента. По возможности, желательно не удалять старые серии как можно дольше чтобы релизёр не столько продолжал раздавать старые серии, а смог сконцентрироваться на новых.
    pb.wtf



    Скачать Секретные материалы через торрент http://i76.fastpic.ru/big/2016/0131/6e/0af16162d809eeea566d495999d71c6e.jpg Скачать фильм Секретные материалы через торрент бесплантно в хорошем качестве Описание: Специальные агенты ФБР, Фокс Малдер и Дана Скалли, снова работают вместе, чтобы расследовать странные и необъяснимые дела, ... 9.2 10 5
    Info! Серебряная раздача, засчитывается только 50% скачанного.
    Торрент: Зарегистрирован [2016-02-17 12:59] · скачан: 22 раз
    Статус: √ проверено
    Размер: 2.96 GB
    Как cкачать? Как скачать Секретные материалы через торрент | qTorrent



    Последний раз редактировалось: Messa-fan (2016-02-17 12:59), всего редактировалось 3 раз(а)

    28-11-2019 20:33  

    Отключить всю рекламу на сайте

    01-02-2016 08:06 Секретные материалы Скачать торрент  

    так себеpb.wtf



    01-02-2016 20:16 Секретные материалы Скачать торрент  

    уже не торт, но экшн с первых серий )pb.wtf



    01-02-2016 22:33 Секретные материалы Скачать торрент  

    "Съемки шести эпизодов первого сезона стартовали 8 июня 2015 года в Ванкувере." ...... может все-таки 10-го сезона, а не первого?pb.wtf



    17-02-2016 12:59 Секретные материалы Скачать торрент  

    +03pb.wtf



      Дорогой пользователь! Огромная просьба, поблагодарите релизера, оцените раздачу и оставьте свои комментарий, если Вы скачали Секретные материалы через торрент бесплатно! Внесите свою лепту в развитие PiratBit!
      Комментировать посты могут только пользователи прошедшие не сложную регистрацию
      Показать сообщения:    

      Секретные материалы через торрент
      Скачать бесплатно Секретные материалы
      Секретные материалы скачать торрент
      Секретные материалы смотреть онлайн
      Cкачать фильм Секретные материалы бесплатно
      Секретные материалы скачать торрент в хорошем качестве
      Секретные материалы смотреть онлайн бесплатно в хорошем качестве


      Вы не можете начинать темы
      Вы не можете отвечать на сообщения
      Вы не можете редактировать свои сообщения
      Вы не можете удалять свои сообщения
      Вы не можете голосовать в опросах
      Вы не можете прикреплять файлы к сообщениям
      Вы можете скачивать файлы