Ссылка на приватное зеркало нашего сайта всего за 1$. Внимание количество ограничено!!!

2 сезон

iTunes

1 сезон

1

iTunes

iTunes

iTunes

1 сезон

RePack

30

ИГРА 18+

pack

ВАЖНО

!!Акция!!

Alien_RageХит недели

RePack

MK11
pack

Забери бонус

RePack

jed

!!Акция!!

Alien_Rage

RePack

fifa19

RePack

Assassins Creed: Odyssey

RePack

NEED FOR SPEED™ PAYBACK

4 сезон

9 сезон

Бесстыжие 9 сезон

Все сериалы

все сериалы на PB.wtf

RePack

FAR CRY 5
  

«Весёлые» каникулы / Get the Gringo (Адриан Грюнберг ) [2012, боевик, триллер, драма, BDRip 1080p от _denis_100 / NNNB] DUB, 4xAVO + Original + Sub (Rus, 4xEng) pb.wtf

«Весёлые» каникулы через торрент pb.wtf

Размер: 11.51 GB | Добавлен: 4 года 8 мес. назад | Торрент скачан:143 раза
Скачать  

31-01-2016 07:49 «Весёлые» каникулы Скачать торрент  

«Весёлые» каникулы / Get the Gringo
«Вот такое хреновое лето»


Год выпуска: 2012
Страна: США
Жанр: боевик, триллер, драма, криминал
Продолжительность: 01:35:59
Перевод: Дублированный, Авторский одноголосый
Субтитры: русские, английские (Forced), английские, английские (SDH.v1), английские (SDH.v2),
Режиссер: Адриан Грюнберг
В ролях: Мэл Гибсон , Кевин Эрнандес , Долорес Эредия , Хесус Очоа , Даниэль Хименес Качо , Питер Герети , Роберто Соса , Петер Стормаре , Боб Гантон , Марио Сарагоса , Херардо Тарасена , Дин Норрис
Описание:
История злоключений пойманного мексиканскими властями преступника из Америки, заключенного в полную наркотиков и насилия тюрьму.

R - Лицам до 17 лет обязательно присутствие взрослого
Качество: BDRip 1080p
Контейнер (Расширение): MKV
Видео: 1920x800, 13333 Кбит/сек, 23,976 кадр/сек, 0,362 Бит/[Пиксели*Кадры]
Аудио №1: русский / AC3 / 5.1 / 48 kHz / 640 kbps / 16 bit |Дублированный|
Аудио №2: русский / AC3 / 5.1 / 48 kHz / 640 kbps / 16 bit |Авторский, А. Гаврилов|
Аудио №3: русский / AC3 / 5.1 / 48 kHz / 640 kbps / 16 bit |Авторский, Ю. Немахов|
Аудио №4: русский / AC3 / 5.1 / 48 kHz / 640 kbps / 16 bit |Авторский, А. Багичев|
Аудио №5: русский / AC3 / 5.1 / 48 kHz / 640 kbps / 16 bit |Авторский, А. Карповский|
Аудио №6: английский / AC3 / 5.1 / 48 kHz / 640 kbps / 16 bit
Навигация по главам(Чаптеры): естьАвтор рипа: Сообщество:

Код:

Format                                   : Matroska
Format version                           : Version 2
File size                                : 11.5 GiB
Duration                                 : 1h 35mn
Overall bit rate                         : 17.2 Mbps
Movie name                               : Get the Gringo.(2012).BDRip.1080p.[denis100]
Encoded date                             : UTC 2016-01-31 07:27:12
Writing application                      : mkvmerge v5.8.0 ('No Sleep / Pillow') built on Sep  2 2012 15:37:04
Writing library                          : libebml v1.2.3 + libmatroska v1.3.0

Video
ID                                       : 1
Format                                   : AVC
Format/Info                              : Advanced Video Codec
Format profile                           : High@L4.1
Format settings, CABAC                   : Yes
Format settings, ReFrames                : 5 frames
Codec ID                                 : V_MPEG4/ISO/AVC
Duration                                 : 1h 35mn
Bit rate                                 : 13.3 Mbps
Width                                    : 1 920 pixels
Height                                   : 800 pixels
Display aspect ratio                     : 2.40:1
Frame rate                               : 23.976 fps
Color space                              : YUV
Chroma subsampling                       : 4:2:0
Bit depth                                : 8 bits
Scan type                                : Progressive
Bits/(Pixel*Frame)                       : 0.362
Stream size                              : 8.71 GiB (76%)
Title                                    : Get the Gringo.(2012).BDRip.1080p.[denis100]
Writing library                          : x264 core 148 r2638 7599210
Encoding settings                        : cabac=1 / ref=5 / deblock=1:-3:-3 / analyse=0x3:0x133 / me=umh / subme=11 / psy=1 / psy_rd=1.00:0.10 / mixed_ref=1 / me_range=32 / chroma_me=1 / trellis=2 / 8x8dct=1 / cqm=0 / deadzone=21,11 / fast_pskip=0 / chroma_qp_offset=-3 / threads=6 / lookahead_threads=1 / sliced_threads=0 / nr=0 / decimate=1 / interlaced=0 / bluray_compat=0 / constrained_intra=0 / bframes=8 / b_pyramid=2 / b_adapt=2 / b_bias=0 / direct=3 / weightb=1 / open_gop=0 / weightp=2 / keyint=240 / keyint_min=23 / scenecut=40 / intra_refresh=0 / rc=2pass / mbtree=0 / bitrate=13333 / ratetol=1.0 / qcomp=0.60 / qpmin=0 / qpmax=69 / qpstep=4 / cplxblur=20.0 / qblur=0.5 / ip_ratio=1.40 / pb_ratio=1.30 / aq=2:0.80
Language                                 : English
Default                                  : Yes
Forced                                   : No

Audio #1
ID                                       : 2
Format                                   : AC-3
Format/Info                              : Audio Coding 3
Mode extension                           : CM (complete main)
Codec ID                                 : A_AC3
Duration                                 : 1h 35mn
Bit rate mode                            : Constant
Bit rate                                 : 640 Kbps
Channel(s)                               : 6 channels
Channel positions                        : Front: L C R, Side: L R, LFE
Sampling rate                            : 48.0 KHz
Bit depth                                : 16 bits
Compression mode                         : Lossy
Stream size                              : 439 MiB (4%)
Title                                    : Дублированный
Language                                 : Russian
Default                                  : Yes
Forced                                   : No

Audio #2
ID                                       : 3
Format                                   : AC-3
Format/Info                              : Audio Coding 3
Mode extension                           : CM (complete main)
Codec ID                                 : A_AC3
Duration                                 : 1h 35mn
Bit rate mode                            : Constant
Bit rate                                 : 640 Kbps
Channel(s)                               : 6 channels
Channel positions                        : Front: L C R, Side: L R, LFE
Sampling rate                            : 48.0 KHz
Bit depth                                : 16 bits
Compression mode                         : Lossy
Stream size                              : 439 MiB (4%)
Title                                    : Авторский, А. Гаврилов
Language                                 : Russian
Default                                  : No
Forced                                   : No

Audio #3
ID                                       : 4
Format                                   : AC-3
Format/Info                              : Audio Coding 3
Mode extension                           : CM (complete main)
Codec ID                                 : A_AC3
Duration                                 : 1h 35mn
Bit rate mode                            : Constant
Bit rate                                 : 640 Kbps
Channel(s)                               : 6 channels
Channel positions                        : Front: L C R, Side: L R, LFE
Sampling rate                            : 48.0 KHz
Bit depth                                : 16 bits
Compression mode                         : Lossy
Stream size                              : 439 MiB (4%)
Title                                    : Авторский, Ю. Немахов
Language                                 : Russian
Default                                  : No
Forced                                   : No

Audio #4
ID                                       : 5
Format                                   : AC-3
Format/Info                              : Audio Coding 3
Mode extension                           : CM (complete main)
Codec ID                                 : A_AC3
Duration                                 : 1h 35mn
Bit rate mode                            : Constant
Bit rate                                 : 640 Kbps
Channel(s)                               : 6 channels
Channel positions                        : Front: L C R, Side: L R, LFE
Sampling rate                            : 48.0 KHz
Bit depth                                : 16 bits
Compression mode                         : Lossy
Stream size                              : 439 MiB (4%)
Title                                    : Авторский, А. Багичев
Language                                 : Russian
Default                                  : No
Forced                                   : No

Audio #5
ID                                       : 6
Format                                   : AC-3
Format/Info                              : Audio Coding 3
Mode extension                           : CM (complete main)
Codec ID                                 : A_AC3
Duration                                 : 1h 35mn
Bit rate mode                            : Constant
Bit rate                                 : 640 Kbps
Channel(s)                               : 6 channels
Channel positions                        : Front: L C R, Side: L R, LFE
Sampling rate                            : 48.0 KHz
Bit depth                                : 16 bits
Compression mode                         : Lossy
Stream size                              : 439 MiB (4%)
Title                                    : Авторский, А. Карповский
Language                                 : Russian
Default                                  : No
Forced                                   : No

Audio #6
ID                                       : 7
Format                                   : AC-3
Format/Info                              : Audio Coding 3
Mode extension                           : CM (complete main)
Codec ID                                 : A_AC3
Duration                                 : 1h 35mn
Bit rate mode                            : Constant
Bit rate                                 : 640 Kbps
Channel(s)                               : 6 channels
Channel positions                        : Front: L C R, Side: L R, LFE
Sampling rate                            : 48.0 KHz
Bit depth                                : 16 bits
Compression mode                         : Lossy
Stream size                              : 439 MiB (4%)
Language                                 : English
Default                                  : No
Forced                                   : No

Text #1
ID                                       : 8
Format                                   : UTF-8
Codec ID                                 : S_TEXT/UTF8
Codec ID/Info                            : UTF-8 Plain Text
Language                                 : Russian
Default                                  : No
Forced                                   : No

Text #2
ID                                       : 9
Format                                   : UTF-8
Codec ID                                 : S_TEXT/UTF8
Codec ID/Info                            : UTF-8 Plain Text
Title                                    : Forced
Language                                 : English
Default                                  : No
Forced                                   : No

Text #3
ID                                       : 10
Format                                   : UTF-8
Codec ID                                 : S_TEXT/UTF8
Codec ID/Info                            : UTF-8 Plain Text
Language                                 : English
Default                                  : No
Forced                                   : No

Text #4
ID                                       : 11
Format                                   : UTF-8
Codec ID                                 : S_TEXT/UTF8
Codec ID/Info                            : UTF-8 Plain Text
Title                                    : SDH.v1
Language                                 : English
Default                                  : No
Forced                                   : No

Text #5
ID                                       : 12
Format                                   : UTF-8
Codec ID                                 : S_TEXT/UTF8
Codec ID/Info                            : UTF-8 Plain Text
Title                                    : SDH.v2
Language                                 : English
Default                                  : No
Forced                                   : No

Menu
00:00:00.000                             : en:00:00:00.000
00:06:04.781                             : en:00:06:04.781
00:10:42.100                             : en:00:10:42.100
00:13:47.576                             : en:00:13:47.576
00:16:02.794                             : en:00:16:02.794
00:18:40.744                             : en:00:18:40.744
00:23:49.970                             : en:00:23:49.970
00:26:29.462                             : en:00:26:29.462
00:30:06.262                             : en:00:30:06.262
00:35:37.594                             : en:00:35:37.594
00:38:36.230                             : en:00:38:36.230
00:40:50.697                             : en:00:40:50.697
00:45:16.130                             : en:00:45:16.130
00:51:05.478                             : en:00:51:05.478
00:54:01.278                             : en:00:54:01.278
00:57:31.197                             : en:00:57:31.197
01:00:53.398                             : en:01:00:53.398
01:05:44.273                             : en:01:05:44.273
01:09:17.862                             : en:01:09:17.862
01:13:33.158                             : en:01:13:33.158
01:18:43.092                             : en:01:18:43.092
01:23:20.703                             : en:01:23:20.703
01:25:49.185                             : en:01:25:49.185
01:28:19.377                             : en:01:28:19.377

x264 [info]: frame I:1211 Avg QP:14.94 size:245791
x264 [info]: frame P:35219 Avg QP:17.16 size:107870
x264 [info]: frame B:101666 Avg QP:19.15 size: 54048
pb.wtf



Скачать «Весёлые» каникулы через торрент http://i74.fastpic.ru/big/2016/0131/a7/3aa490aa56ee16bc252883de46fb88a7.png Скачать фильм «Весёлые» каникулы через торрент бесплантно в хорошем качестве Описание:История злоключений пойманного мексиканскими властями преступника из Америки, заключенного в полную наркотиков и насилия тюрьму. R ... 10 10 3
Info! Золотая раздача, скачанное не засчитывается.
Торрент: Зарегистрирован [2016-01-31 07:49] · скачан: 143 раз
Статус: √ проверено
Размер: 11.51 GB
Как cкачать? Как скачать «Весёлые» каникулы через торрент | qTorrent

% Раздел Тема Автор DL S | L
Фильмы 2012 [ 2.18 GB ] «Весёлые» каникулы / Get the Gringo [2012 BDRip-AVC] DUB [] potroks Скачать
1 | 0
Фильмы [HD 720p, 1080p] (Хороший звук DUB, MVO) [ 5.75 GB ] «Весёлые» каникулы / Get the Gringo [2012 BDRip 720p от _denis_100 / NNNB] DUB 4xAVO + Original + Sub _denis_100 Скачать
1 | 0
Фильмы 2012 [ 1.45 GB ] «Весёлые» каникулы / Get the Gringo [2012 BDRip от HQCLUB / ] Ворон Скачать
1 | 0
Фильмы [HD 720p, 1080p] (Хороший звук DUB, MVO) [ 5.2 GB ] «Весёлые» каникулы / Get the Gringo [2011 BDRip 720p лицензия] Ke$h@ Скачать
1 | 0
Фильмы 2012 [ 1.45 GB ] «Весёлые» каникулы / Get the Gringo [2012 BDRip + Оригинал] ОкСиД Скачать
1 | 0
Фильмы 2012 [ 2.05 GB ] «Весёлые» каникулы / Get the Gringo [2012 BDRip DUB + DUB + Оригинал] bogyn Скачать
1 | 0
Фильмы 2012 [ 1.47 GB ] «Весёлые» каникулы / Get the Gringo [2012 DVDRip-AVC DUB ] -=Cherry=- Скачать
1 | 0

28-11-2019 20:33  

Отключить всю рекламу на сайте

31-01-2016 11:34 «Весёлые» каникулы Скачать торрент  

задался вопросом, почему такой перевод. у фильма есть несколько названий в зависимости от страны проката. альтернативные названия-взрывные каникулы и как я провёл летние каникулы. как видим, отечественный прокат, как всегда пошёл дальше всех ))) (как впрочем и украинский)pb.wtf



01-02-2016 00:11 «Весёлые» каникулы Скачать торрент  

(' ')pb.wtf



01-02-2016 19:45 «Весёлые» каникулы Скачать торрент  

Неожиданно интересное кино. Отличная игра Мэла и интересный сюжет. Смотрел в оригинале и дубляже, дубляж понравился, точно по тексту и с юмором, молодцы!pb.wtf



    Дорогой пользователь! Огромная просьба, поблагодарите релизера, оцените раздачу и оставьте свои комментарий, если Вы скачали «Весёлые» каникулы через торрент бесплатно! Внесите свою лепту в развитие PiratBit!
    Комментировать посты могут только пользователи прошедшие не сложную регистрацию
    Показать сообщения:    

    «Весёлые» каникулы через торрент
    Скачать бесплатно «Весёлые» каникулы
    «Весёлые» каникулы скачать торрент
    «Весёлые» каникулы смотреть онлайн
    Cкачать фильм «Весёлые» каникулы бесплатно
    «Весёлые» каникулы скачать торрент в хорошем качестве
    «Весёлые» каникулы смотреть онлайн бесплатно в хорошем качестве


    Вы не можете начинать темы
    Вы не можете отвечать на сообщения
    Вы не можете редактировать свои сообщения
    Вы не можете удалять свои сообщения
    Вы не можете голосовать в опросах
    Вы не можете прикреплять файлы к сообщениям
    Вы можете скачивать файлы