Ссылка на приватное зеркало нашего сайта всего за 1$. Внимание количество ограничено!!!

2 сезон

iTunes

1 сезон

1

iTunes

iTunes

iTunes

1 сезон

RePack

30

ИГРА 18+

pack

ВАЖНО

!!Акция!!

Alien_RageХит недели

RePack

MK11
pack

Забери бонус

RePack

jed

!!Акция!!

Alien_Rage

RePack

fifa19

RePack

Assassins Creed: Odyssey

RePack

NEED FOR SPEED™ PAYBACK

4 сезон

9 сезон

Бесстыжие 9 сезон

Все сериалы

все сериалы на PB.wtf

RePack

FAR CRY 5
  

Ночной сторож / Nattevagten (Уле Борнедаль) [1994, триллер, BDRip 720p by msltel] DVO pb.wtf

Ночной сторож через торрент pb.wtf

Размер: 4.64 GB | Добавлен: 4 года 8 мес. назад | Торрент скачан:99 раз
Скачать  

31-01-2016 09:43 Ночной сторож Скачать торрент  

Название: Ночной сторож
Оригинальное название: Nattevagten
Год выпуска: 1994
Страна: Дания
Жанр: триллер
Продолжительность: 01:47:20
Перевод: профессиональный двухголосый

Режиссёр: Уле Борнедаль

В ролях: Николай Костер-Валдау, Ким Бодния, Софи Гробёль, Лотти Андерсен, Рикке Луиз Андерссон, Стиг Хоффмайер, Гирд Лофквист, Нильс Андерс Торн

Описание: Студент Мартин решил немного подработать. Для этой цели он нашёл себе нехлопотное, спокойное и очень тихое место сторожа в морге. Конечно, немного страшновато, но ведь никто не мешает готовиться к занятиям, не отвлекает. Не отвлекает? Если бы так! Оказывается, именно сюда привозят трупы несчастных девушек, изуродованных кровожадным маньяком, держащим в страхе весь город. В морге начинают происходить странные вещи. В безмолвный мир мёртвых вторгаются живые, и становится действительно жутко. Ведь мёртвые не могут себя защитить...



Качество: BDRip 720p Сравнение с исходником
Формат: MKV
Видео: MPEG-4 AVC, 5807 Кбит/с, 1280x690, 23,976 кадра/с
Аудио 1: русский, AC3, 192 kbps, 2 ch, 48 kHz [профессиональный двухголосый]
Аудио 2: датский, AC3, 192 kbps, 2 ch, 48 kHz [оригинал]
Субтитры: английские
Общее
Уникальный идентификатор : 203217200281533546152610177007932343376 (0x98E23589210E3A0DA3AD7D38918B0450)
Полное имя : D:\Video\Ночной сторож.1994.BDRip.720p.mkv
Формат : Matroska
Версия формата : Version 4 / Version 2
Размер файла : 4,64 Гбайт
Продолжительность : 1 ч. 47 м.
Общий поток : 6193 Кбит/сек
Дата кодирования : UTC 2016-01-31 03:25:28
Программа кодирования : mkvmerge v8.2.0 ('World of Adventure') 64bit
Библиотека кодирования : libebml v1.3.1 + libmatroska v1.4.2

Видео
Идентификатор : 1
Формат : AVC
Формат/Информация : Advanced Video Codec
Профиль формата : High@L4.1
Параметр CABAC формата : Да
Параметр ReFrames формата : 9 кадров
Идентификатор кодека : V_MPEG4/ISO/AVC
Продолжительность : 1 ч. 47 м.
Битрейт : 5807 Кбит/сек
Ширина : 1280 пикселей
Высота : 690 пикселей
Соотношение сторон : 1,85:1
Режим частоты кадров : Постоянный
Частота кадров : 23,976 (24000/1001) кадра/сек
Цветовое пространство : YUV
Субдискретизация насыщенности : 4:2:0
Битовая глубина : 8 бит
Тип развёртки : Прогрессивная
Бит/(Пиксели*Кадры) : 0.274
Размер потока : 4,35 Гбайт (94%)
Библиотека кодирования : x264 core 146 r2538 121396c
Настройки программы : cabac=1 / ref=9 / deblock=1:-3:-3 / analyse=0x3:0x113 / me=umh / subme=10 / psy=1 / psy_rd=1.00:0.15 / mixed_ref=1 / me_range=32 / chroma_me=1 / trellis=2 / 8x8dct=1 / cqm=0 / deadzone=21,11 / fast_pskip=1 / chroma_qp_offset=-3 / threads=6 / lookahead_threads=1 / sliced_threads=0 / nr=0 / decimate=1 / interlaced=0 / bluray_compat=0 / constrained_intra=0 / bframes=9 / b_pyramid=2 / b_adapt=2 / b_bias=0 / direct=1 / weightb=1 / open_gop=0 / weightp=2 / keyint=230 / keyint_min=23 / scenecut=40 / intra_refresh=0 / rc_lookahead=40 / rc=crf / mbtree=0 / crf=20.2 / qcomp=0.60 / qpmin=0 / qpmax=69 / qpstep=4 / vbv_maxrate=40000 / vbv_bufsize=50000 / crf_max=0.0 / nal_hrd=none / filler=0 / ip_ratio=1.40 / pb_ratio=1.30 / aq=1:1.00
Язык : English
Default : Да
Forced : Нет

Аудио #1
Идентификатор : 2
Формат : AC-3
Формат/Информация : Audio Coding 3
Расширение режима : CM (complete main)
Параметр Endianness формата : Big
Идентификатор кодека : A_AC3
Продолжительность : 1 ч. 47 м.
Вид битрейта : Постоянный
Битрейт : 192 Кбит/сек
Каналы : 2 канала
Расположение каналов : Front: L R
Частота : 48,0 КГц
Частота кадров : 31,250 кадров/сек (1536 spf)
Метод сжатия : С потерями
Размер потока : 147 Мбайт (3%)
Заголовок : DVO
Язык : Russian
Default : Да
Forced : Нет

Аудио #2
Идентификатор : 3
Формат : AC-3
Формат/Информация : Audio Coding 3
Расширение режима : CM (complete main)
Параметр Endianness формата : Big
Идентификатор кодека : A_AC3
Продолжительность : 1 ч. 47 м.
Вид битрейта : Постоянный
Битрейт : 192 Кбит/сек
Каналы : 2 канала
Расположение каналов : Front: L R
Частота : 48,0 КГц
Частота кадров : 31,250 кадров/сек (1536 spf)
Метод сжатия : С потерями
Размер потока : 147 Мбайт (3%)
Заголовок : Original
Язык : Danish
Default : Нет
Forced : Нет

Текст
Идентификатор : 4
Формат : UTF-8
Идентификатор кодека : S_TEXT/UTF8
Идентификатор кодека/Информация : UTF-8 Plain Text
Продолжительность : 1 ч. 44 м.
Битрейт : 31 бит/сек
Count of elements : 712
Размер потока : 24,1 Кбайт (0%)
Заголовок : английский
Язык : English
Default : Нет
Forced : Нет
pb.wtf



Скачать Ночной сторож через торрент http://i017.radikal.ru/1601/cb/2275b74890b8.jpg Скачать фильм Ночной сторож через торрент бесплантно в хорошем качестве Описание: Студент Мартин решил немного подработать. Для этой цели он нашёл себе нехлопотное, спокойное и очень тихое место сторожа в морге. ... 7 10 3
Info! Золотая раздача, скачанное не засчитывается.
Торрент: Зарегистрирован [2016-01-31 09:43] · скачан: 99 раз
Статус: √ проверено
Размер: 4.64 GB
Как cкачать? Как скачать Ночной сторож через торрент | qTorrent

% Раздел Тема Автор DL S | L
Фильмы [HD 720p, 1080p] (Хороший звук DUB, MVO) [ 12.68 GB ] Ночной сторож / Nattevagten [1994 BDRip 1080p by msltel] DVO msltel Скачать
1 | 0
Фильмы до 2000 г. [ 2.23 GB ] Ночной сторож / Nattevagten [1994 BDRip AVC by msltel] DVO msltel Скачать
1 | 0

28-11-2019 20:33  

Отключить всю рекламу на сайте

    Дорогой пользователь! Огромная просьба, поблагодарите релизера, оцените раздачу и оставьте свои комментарий, если Вы скачали Ночной сторож через торрент бесплатно! Внесите свою лепту в развитие PiratBit!
    Комментировать посты могут только пользователи прошедшие не сложную регистрацию
    Показать сообщения:    

    Ночной сторож через торрент
    Скачать бесплатно Ночной сторож
    Ночной сторож скачать торрент
    Ночной сторож смотреть онлайн
    Cкачать фильм Ночной сторож бесплатно
    Ночной сторож скачать торрент в хорошем качестве
    Ночной сторож смотреть онлайн бесплатно в хорошем качестве


    Вы не можете начинать темы
    Вы не можете отвечать на сообщения
    Вы не можете редактировать свои сообщения
    Вы не можете удалять свои сообщения
    Вы не можете голосовать в опросах
    Вы не можете прикреплять файлы к сообщениям
    Вы можете скачивать файлы