Marvel's Avengers Deluxe Edition (супер цена) 159р. Внимание количество ограничено!!!

2 сезон

iTunes

iTunes

1

iTunes

iTunes

iTunes

WEBRip

iTunes

30
pack

Новость дня

ВАЖНО

!!Акция!!

Alien_RageХит недели

RePack

Horizon Zero Dawn

ИГРА 18+

pack

RePack

jed

!!Акция!!

Alien_Rage

RePack

fifa19

RePack

Assassins Creed: Odyssey

RePack

NEED FOR SPEED™ PAYBACK

4 сезон

9 сезон

Бесстыжие 9 сезон

Все сериалы

все сериалы на PB.wtf

RePack

FAR CRY 5
  

Багровый пик / Crimson Peak (Гильермо дель Торо / Guillermo del Toro) [2015, ужасы, фэнтези, триллер, BDRip-AVC от potroks] DUB Лицензия pb.wtf

Багровый пик через торрент pb.wtf

Размер: 1.46 GB | Добавлен: 4 года 7 мес. назад | Торрент скачан:324 раза
Скачать  

31-01-2016 11:26 Багровый пик Скачать торрент  

Багровый пик / Crimson Peak
«Beware»
Год выпуска: 2015
Страна: США, Канада / Legendary Pictures
Жанр: ужасы, фэнтези, триллер, драма, мелодрама, детектив
Продолжительность: 01:58:42
Перевод: Дубляж [BD CEE]
Субтитры: русские (полные + форс.)
Навигация по главам: есть
Режиссер: Гильермо дель Торо / Guillermo del Toro
В ролях:

Миа Васиковска (Edith Cushing), Джессика Честейн (Lucille Sharpe), Том Хиддлстон (Thomas Sharpe), Чарли Ханнэм (Dr. Alan McMichael), Джим Бивер (Carter Cushing), Берн Горман (Holly), Лесли Хоуп (Mrs. McMichael), Даг Джонс (Edith's Mother / Lady Sharpe), Джонатан Хайд (Ogilvie), Брюс Грэй (Ferguson), Эмили Куттс (Eunice), Алек Стокуэлл (Finlay)
Описание: Дурная слава преследует дом, что возвышается над городом. С приходом зимы он утопает в кровавых снегах. Говорят, дело в глине, проступающей на поверхность. Но ни единая душа не рискует ступить на ледяной склон... кроме нее. Она влюблена в таинственного незнакомца, живущего в древних стенах со своей сестрой. Багровый пик пробудился и уже не уснет.

Качество: BDRip-AVC
Формат: MKV
Видео кодек: AVC
Аудио кодек: AC3
Видео: 908x490 (1.853), 1570 kbps, 23,976 fps, 0,147 bit/pixel
Аудио: AC3 / 2.0 / 48 kHz / 192 kbps / 16 bit

Релиз группы:
Автор рипа: potroks

Код:

Общее
Уникальный идентификатор : 241053406222404037167796411918306612030 (0xB5593283D3D1FBFD9F9F3DADB0E9933E)
Полное имя : Bagrovyi.Pik.2015.RUS.BDRip.x264.-HELLYWOOD.mkv
Формат : Matroska
Версия формата : Version 4 / Version 2
Размер файла : 1,46 Гбайт
Продолжительность : 1 ч. 58 м.
Общий поток : 1761 Кбит/сек
Название фильма : Crimson Peak (2015) - HELLYWOOD
Дата кодирования : UTC 2016-02-10 07:10:25
Программа кодирования : mkvmerge v5.9.0 ('On The Loose') built on Dec 15 2012 16:39:58
Библиотека кодирования : libebml v1.3.0 + libmatroska v1.4.0

Видео
Идентификатор : 1
Формат : AVC
Формат/Информация : Advanced Video Codec
Профиль формата : High@L4.1
Параметр CABAC формата : Да
Параметр ReFrames формата : 12 кадров
Идентификатор кодека : V_MPEG4/ISO/AVC
Продолжительность : 1 ч. 58 м.
Битрейт : 1570 Кбит/сек
Ширина : 908 пикселей
Высота : 490 пикселей
Соотношение сторон : 1,85:1
Режим частоты кадров : Постоянный
Частота кадров : 23,976 кадра/сек
Цветовое пространство : YUV
Субдискретизация насыщенности : 4:2:0
Битовая глубина : 8 бит
Тип развёртки : Прогрессивная
Бит/(Пиксели*Кадры) : 0.147
Размер потока : 1,27 Гбайт (87%)
Заголовок : potroks
Библиотека кодирования : x264 core 146 r2538 121396c
Настройки программы : cabac=1 / ref=12 / deblock=1:-2:-2 / analyse=0x3:0x113 / me=umh / subme=11 / psy=1 / psy_rd=1.00:0.05 / mixed_ref=1 / me_range=32 / chroma_me=1 / trellis=2 / 8x8dct=1 / cqm=0 / deadzone=21,11 / fast_pskip=0 / chroma_qp_offset=-3 / threads=9 / lookahead_threads=2 / sliced_threads=0 / nr=0 / decimate=0 / interlaced=0 / bluray_compat=0 / constrained_intra=0 / bframes=13 / b_pyramid=2 / b_adapt=2 / b_bias=0 / direct=3 / weightb=1 / open_gop=0 / weightp=2 / keyint=240 / keyint_min=23 / scenecut=40 / intra_refresh=0 / rc_lookahead=60 / rc=2pass / mbtree=0 / bitrate=1570 / ratetol=1.0 / qcomp=0.70 / qpmin=0 / qpmax=69 / qpstep=4 / cplxblur=20.0 / qblur=0.5 / vbv_maxrate=14000 / vbv_bufsize=14000 / nal_hrd=none / filler=0 / ip_ratio=1.35 / pb_ratio=1.25 / aq=1:0.80
Язык : English
Default : Да
Forced : Нет

Аудио
Идентификатор : 2
Формат : AC-3
Формат/Информация : Audio Coding 3
Расширение режима : CM (complete main)
Параметр Endianness формата : Big
Идентификатор кодека : A_AC3
Продолжительность : 1 ч. 58 м.
Вид битрейта : Постоянный
Битрейт : 192 Кбит/сек
Каналы : 2 канала
Расположение каналов : Front: L R
Частота : 48,0 КГц
Метод сжатия : С потерями
Размер потока : 163 Мбайт (11%)
Заголовок : Dub | DD 2.0 @ 192 kbps - Blu-Ray CEE
Язык : Russian
Default : Да
Forced : Нет

Текст #1
Идентификатор : 3
Формат : UTF-8
Идентификатор кодека : S_TEXT/UTF8
Идентификатор кодека/Информация : UTF-8 Plain Text
Заголовок : Forced
Язык : Russian
Default : Да
Forced : Нет

Текст #2
Идентификатор : 4
Формат : UTF-8
Идентификатор кодека : S_TEXT/UTF8
Идентификатор кодека/Информация : UTF-8 Plain Text
Язык : Russian
Default : Нет
Forced : Нет

Меню
00:00:00.000 : en:(01)00:00:00:000
00:06:02.528 : en:(02)00:06:02:528
00:11:01.202 : en:(03)00:11:01:202
00:15:29.720 : en:(04)00:15:29:720
00:21:13.105 : en:(05)00:21:13:105
00:25:52.926 : en:(06)00:25:52:926
00:31:14.664 : en:(07)00:31:14:664
00:39:26.822 : en:(08)00:39:26:822
00:45:40.612 : en:(09)00:45:40:612
00:51:57.030 : en:(10)00:51:57:030
00:56:11.576 : en:(11)00:56:11:576
01:02:05.096 : en:(12)01:02:05:096
01:08:19.929 : en:(13)01:08:19:929
01:14:24.835 : en:(14)01:14:24:835
01:20:19.105 : en:(15)01:20:19:105
01:25:54.149 : en:(16)01:25:54:149
01:30:38.891 : en:(17)01:30:38:891
01:36:09.638 : en:(18)01:36:09:638
01:43:21.069 : en:(19)01:43:21:069
01:51:24.135 : en:(20)01:51:24:135
01:58:43.491 : en:(21)01:58:43:491

pb.wtf



Скачать Багровый пик через торрент http://i66.fastpic.ru/big/2016/0131/47/4c6aff1c11e0cefa9b65db1bb2d2a947.png Скачать фильм Багровый пик через торрент бесплантно в хорошем качестве Описание: Дурная слава преследует дом, что возвышается над городом. С приходом зимы он утопает в кровавых снегах. Говорят, дело в глине, ... 9.6 10 24
Info! Золотая раздача, скачанное не засчитывается.
Торрент: Зарегистрирован [2016-02-10 07:37] · скачан: 324 раз
Статус: √ проверено
Размер: 1.46 GB
Как cкачать? Как скачать Багровый пик через торрент | qTorrent

% Раздел Тема Автор DL S | L
Фильмы (Blu-ray, BD-Remux, HDDVD) [ 44.92 GB ] Багровый пик / Crimson Peak [2015 Blu-ray] DUB Russian Mafia Скачать
1 | 0
Фильмы (Blu-ray, BD-Remux, HDDVD) [ 31.55 GB ] Багровый пик / Crimson Peak [2015 BDRemux] DUB Russian Mafia Скачать
1 | 0
Фильмы 2015 [DVDrip, WEB-DLRip, HDrip] [ 2.18 GB ] Багровый пик / Crimson Peak [2015 BDRip-AVC] DUB potroks Скачать
1 | 0
Фильмы 2015 [DVDrip, WEB-DLRip, HDrip] [ 1.46 GB ] Багровый пик / Crimson Peak [2015 BDRip] DUB Twi7ter Скачать
1 | 0
Фильмы 2015 [DVDrip, WEB-DLRip, HDrip] [ 1.46 GB ] Багровый пик / Crimson Peak [2015 WEB-DLRip] Dub Twi7ter Скачать
1 | 0

28-11-2019 20:33  

Отключить всю рекламу на сайте

10-02-2016 07:40 Багровый пик Скачать торрент  

замена на лицензиюpb.wtf



09-04-2016 17:46 Багровый пик Скачать торрент  

Автору спс! Фильм на раз! Гильермо снимать вторую часть фильма Тихоокенский рубеж!pb.wtf



    Дорогой пользователь! Огромная просьба, поблагодарите релизера, оцените раздачу и оставьте свои комментарий, если Вы скачали Багровый пик через торрент бесплатно! Внесите свою лепту в развитие PiratBit!
    Комментировать посты могут только пользователи прошедшие не сложную регистрацию
    Показать сообщения:    

    Багровый пик через торрент
    Скачать бесплатно Багровый пик
    Багровый пик скачать торрент
    Багровый пик смотреть онлайн
    Cкачать фильм Багровый пик бесплатно
    Багровый пик скачать торрент в хорошем качестве
    Багровый пик смотреть онлайн бесплатно в хорошем качестве


    Вы не можете начинать темы
    Вы не можете отвечать на сообщения
    Вы не можете редактировать свои сообщения
    Вы не можете удалять свои сообщения
    Вы не можете голосовать в опросах
    Вы не можете прикреплять файлы к сообщениям
    Вы можете скачивать файлы