Ссылка на приватное зеркало нашего сайта всего за 1$. Внимание количество ограничено!!!

2 сезон

iTunes

1 сезон

1

iTunes

iTunes

iTunes

1 сезон

RePack

30

ИГРА 18+

pack

ВАЖНО

!!Акция!!

Alien_RageХит недели

RePack

MK11
pack

Забери бонус

RePack

jed

!!Акция!!

Alien_Rage

RePack

fifa19

RePack

Assassins Creed: Odyssey

RePack

NEED FOR SPEED™ PAYBACK

4 сезон

9 сезон

Бесстыжие 9 сезон

Все сериалы

все сериалы на PB.wtf

RePack

FAR CRY 5
  

Ганди / Gandhi (Джонатан Кинг) [1982, драма, биография, история, BDRip 720p от еnvy / NNNB] DUB, AVO pb.wtf

Ганди через торрент pb.wtf

Раздают: 3 [ 0 KB/s ]
Размер: 11.34 GB | Добавлен: 4 года 8 мес. назад | Торрент скачан:76 раз
Скачать  

31-01-2016 16:31 Ганди Скачать торрент  

Информация о фильме

Русское название: Ганди
Оригинальное название: Gandhi
Год выхода: 1982
Жанр: драма, биография, история
Режиссер: Ричард Аттенборо
Выпущено: Великобритания, Индия
Продолжительность: 03:11:14
Перевод: Дублированный, Авторский (одноголосый, закадровый)
В ролях: Бен Кингсли, Рошан Сет, Джеральдин Джеймс, Рохини Хаттангди, Кэндис Берген, Иэн Чарлсон, Мартин Шин, Джон Гилгуд, Эдвард Фокс, Тревор Ховард, Ричард Гриффитс, Дэниэл Дэй-Льюис




Сюжет фильма

В 1869 году, когда Ганди родился, его страна ещё была украшением Британской империи и одной из драгоценностей королевы Виктории. 30 января 1948 года, в день его убийства, Индия была свободной. Это стало плодом его трудов, трудов долгой титанической жизни.




Файл

Качество: BDRip 720p (исходник Blu-ray Disc Remux)
Контейнер: MKV (расширение файла)
Видео: 1280x544, 7656 Кбит/сек, 23,976 кадр/сек, AVC, x264, High@L4.1, 2.35:1, 0.459 Бит/[Пиксели*Кадры]
Аудио 1: AC-3, 192 Кбит/сек, 2 канала(ов), 48,0 КГц - Дублированный / Русский *
Аудио 2: AC-3, 192 Кбит/сек, 2 канала(ов), 48,0 КГц - Одноголосый закадровый, Ю. Живов / Русский
Аудио 3: AC-3, 448 Кбит/сек, 6 канала(ов), 48,0 КГц - Оригинал / Английский
Субтитры: Русские | Полные, Английские | Полные
Форсированные субтитры: Нет
Чаптеры (Главы): Есть









Автор Рипа: Сообщество:


Код:

Format                      : Matroska
Format version              : Version 2
File size                   : 11.3 GiB
Duration                    : 3h 11mn
Overall bit rate            : 8 486 Kbps
Movie name                  : Ганди.(1982).BDRip.720p.[envy]
Encoded date                : UTC 2016-01-31 15:58:27
Writing application         : mkvmerge v5.8.0 ('No Sleep / Pillow') built on Sep  2 2012 15:37:04
Writing library             : libebml v1.2.3 + libmatroska v1.3.0

Video
ID                          : 1
Format                      : AVC
Format/Info                 : Advanced Video Codec
Format profile              : High@L4.1
Format settings, CABAC      : Yes
Format settings, ReFrames   : 11 frames
Codec ID                    : V_MPEG4/ISO/AVC
Duration                    : 3h 11mn
Bit rate                    : 7 656 Kbps
Width                       : 1 280 pixels
Height                      : 544 pixels
Display aspect ratio        : 2.35:1
Frame rate mode             : Constant
Frame rate                  : 23.976 fps
Color space                 : YUV
Chroma subsampling          : 4:2:0
Bit depth                   : 8 bits
Scan type                   : Progressive
Bits/(Pixel*Frame)          : 0.459
Stream size                 : 10.00 GiB (88%)
Title                       : Ганди.(1982).BDRip.720p.[envy]
Writing library             : x264 core 148 r2638 7599210
Encoding settings           : cabac=1 / ref=11 / deblock=1:-3:-2 / analyse=0x3:0x133 / me=umh / subme=11 / psy=1 / psy_rd=1.00:0.00 / mixed_ref=1 / me_range=32 / chroma_me=1 / trellis=2 / 8x8dct=1 / cqm=0 / deadzone=21,11 / fast_pskip=0 / chroma_qp_offset=-2 / threads=12 / lookahead_threads=2 / sliced_threads=0 / nr=0 / decimate=1 / interlaced=0 / bluray_compat=0 / constrained_intra=0 / bframes=8 / b_pyramid=2 / b_adapt=2 / b_bias=0 / direct=3 / weightb=1 / open_gop=0 / weightp=2 / keyint=240 / keyint_min=23 / scenecut=40 / intra_refresh=0 / rc=2pass / mbtree=0 / bitrate=7656 / ratetol=2.0 / qcomp=0.60 / qpmin=0 / qpmax=69 / qpstep=4 / cplxblur=20.0 / qblur=0.5 / ip_ratio=1.40 / pb_ratio=1.30 / aq=2:0.70
Language                    : English
Default                     : Yes
Forced                      : No

Audio #1
ID                          : 2
Format                      : AC-3
Format/Info                 : Audio Coding 3
Mode extension              : CM (complete main)
Format settings, Endianness : Big
Codec ID                    : A_AC3
Duration                    : 3h 11mn
Bit rate mode               : Constant
Bit rate                    : 192 Kbps
Channel(s)                  : 2 channels
Channel positions           : Front: L R
Sampling rate               : 48.0 KHz
Compression mode            : Lossy
Stream size                 : 263 MiB (2%)
Title                       : Dub
Language                    : Russian
Default                     : Yes
Forced                      : No

Audio #2
ID                          : 3
Format                      : AC-3
Format/Info                 : Audio Coding 3
Mode extension              : CM (complete main)
Format settings, Endianness : Big
Codec ID                    : A_AC3
Duration                    : 3h 11mn
Bit rate mode               : Constant
Bit rate                    : 192 Kbps
Channel(s)                  : 2 channels
Channel positions           : Front: L R
Sampling rate               : 48.0 KHz
Compression mode            : Lossy
Stream size                 : 263 MiB (2%)
Title                       : AVO Zhivov
Language                    : Russian
Default                     : No
Forced                      : No

Audio #3
ID                          : 4
Format                      : AC-3
Format/Info                 : Audio Coding 3
Mode extension              : CM (complete main)
Format settings, Endianness : Big
Codec ID                    : A_AC3
Duration                    : 3h 11mn
Bit rate mode               : Constant
Bit rate                    : 448 Kbps
Channel(s)                  : 6 channels
Channel positions           : Front: L C R, Side: L R, LFE
Sampling rate               : 48.0 KHz
Compression mode            : Lossy
Stream size                 : 613 MiB (5%)
Title                       : Eng
Language                    : English
Default                     : No
Forced                      : No

Text #1
ID                          : 5
Format                      : UTF-8
Codec ID                    : S_TEXT/UTF8
Codec ID/Info               : UTF-8 Plain Text
Title                       : Rus full
Language                    : Russian
Default                     : No
Forced                      : No

Text #2
ID                          : 6
Format                      : UTF-8
Codec ID                    : S_TEXT/UTF8
Codec ID/Info               : UTF-8 Plain Text
Title                       : Eng full
Language                    : English
Default                     : No
Forced                      : No

Menu
00:00:00.000                : :Chapter 01
00:05:00.000                : :Chapter 02
00:10:00.000                : :Chapter 03
00:15:00.000                : :Chapter 04
00:20:00.000                : :Chapter 05
00:25:00.000                : :Chapter 06
00:30:00.000                : :Chapter 07
00:35:00.000                : :Chapter 08
00:40:00.000                : :Chapter 09
00:45:00.000                : :Chapter 10
00:50:00.000                : :Chapter 11
00:55:00.000                : :Chapter 12
01:00:00.000                : :Chapter 13
01:05:00.000                : :Chapter 14
01:10:00.000                : :Chapter 15
01:15:00.000                : :Chapter 16
01:20:00.000                : :Chapter 17
01:25:00.000                : :Chapter 18
01:30:00.000                : :Chapter 19
01:35:00.000                : :Chapter 20
01:40:00.000                : :Chapter 21
01:45:00.000                : :Chapter 22
01:50:00.000                : :Chapter 23
01:55:00.000                : :Chapter 24
02:00:00.000                : :Chapter 25
02:05:00.000                : :Chapter 26
02:10:00.000                : :Chapter 27
02:15:00.000                : :Chapter 28
02:20:00.000                : :Chapter 29
02:25:00.000                : :Chapter 30
02:30:00.000                : :Chapter 31
02:35:00.000                : :Chapter 32
02:40:00.000                : :Chapter 33
02:45:00.000                : :Chapter 34
02:50:00.000                : :Chapter 35
02:55:00.000                : :Chapter 36
03:00:00.000                : :Chapter 37
03:05:00.000                : :Chapter 38
03:10:00.000                : :Chapter 39







* - Звук полностью восстановлен, убран плавающий рассинхрон на протяжении всего фильма. Спасибо программе Sony Vegas! ))pb.wtf



Скачать Ганди через торрент http://5.firepic.org/5/images/2016-01/31/ydwfbsn078w9.png Скачать фильм Ганди через торрент бесплантно в хорошем качестве В ролях: Бен Кингсли, Рошан Сет, Джеральдин Джеймс, Рохини Хаттангди, Кэндис Берген, Иэн Чарлсон, Мартин Шин, Джон Гилгуд, Эдвард Фокс, ... 8.3 10 4
Info! Золотая раздача, скачанное не засчитывается.
Торрент: Зарегистрирован [2016-01-31 16:31] · скачан: 76 раз
Статус: √ проверено
Размер: 11.34 GB
Как cкачать? Как скачать Ганди через торрент | qTorrent

28-11-2019 20:33  

Отключить всю рекламу на сайте

    Дорогой пользователь! Огромная просьба, поблагодарите релизера, оцените раздачу и оставьте свои комментарий, если Вы скачали Ганди через торрент бесплатно! Внесите свою лепту в развитие PiratBit!
    Комментировать посты могут только пользователи прошедшие не сложную регистрацию
    Показать сообщения:    

    Ганди через торрент
    Скачать бесплатно Ганди
    Ганди скачать торрент
    Ганди смотреть онлайн
    Cкачать фильм Ганди бесплатно
    Ганди скачать торрент в хорошем качестве
    Ганди смотреть онлайн бесплатно в хорошем качестве


    Вы не можете начинать темы
    Вы не можете отвечать на сообщения
    Вы не можете редактировать свои сообщения
    Вы не можете удалять свои сообщения
    Вы не можете голосовать в опросах
    Вы не можете прикреплять файлы к сообщениям
    Вы можете скачивать файлы