новый адрес
Ссылка на приватное зеркало всего за 1$. Внимание количество ограничено!!!

iTunes

1+1

iTunes

мы

WEB-DL

1

iTunes

Чернобыль

iTunes

Ральф против интернета

Лицензия

ПШазам

Лицензия

Оно 2

Лицензия

30
pack

Вам бонус

ВАЖНО

!!Акция!!

Alien_RageХит недели

RePack

Resident Evil 21

ИГРА 18+

pack

RePack

jed

!!Акция!!

Alien_Rage

RePack

fifa19

RePack

Assassins Creed: Odyssey

RePack

NEED FOR SPEED™ PAYBACK

3 сезон

9 сезон

Бесстыжие 9 сезон

Все сериалы

все сериалы на PB.wtf

RePack

FAR CRY 5
Ребята, катастрофически не хватает 1900р. для оплаты серверов за Октябрь (всвязи с блокировками трафик упал в 3 раза), 1-2р., выручайте.
  

Страна ОЗ (Василий Сигарев) [2015 г., комедия, WEB-DLRip,Оригинал "iTunes"] pb.wtf

Страна ОЗ через торрент pb.wtf

Размер: 1.47 GB | Добавлен: 3 года 11 мес. назад | Торрент скачан:725 раз
Скачать  

05-01-2016 17:40 Страна ОЗ Скачать торрент  

Страна ОЗ
Год выпуска: 2015
Страна: Россия / Белое Зеркало
Жанр: комедия
Продолжительность: 01:39:48
Перевод: Оригинал (iTunes)

Режиссер: Василий Сигарев

IMDB 7.20 (197)


В ролях: Яна Троянова, Гоша Куценко, Андрей Ильенков, Александр Баширов, Евгений Цыганов, Владимир Симонов, Инна Чурикова, Светлана Камынина, Юлия Снигирь, Алиса Хазанова

Описание: Новый год в России — стихия неуправляемая и беспощадная. Именно в это волшебное время непостижимый колорит русской души проявляет себя во всей красе. Пока жители Екатеринбурга готовятся к главному национальному празднику и шинкуют оливье, Ленка Шабадинова спешит до боя курантов принять смену в киоске на улице Торфорезов. Но она даже не подозревает, что новогодняя ночь приготовила для нее свой безумный сценарий.

Качество: WEB-DLRip
Формат: AVI
Видео кодек: XviD
Аудио кодек: AC3
Видео: 720x384 (1.88:1), 24.000 fps, XviD build 50 ~1709 kbps avg, 0.26 bit/pixel
Аудио: 48 kHz, AC3 Dolby Digital, 3/2 (L,C,R,l,r) + LFE ch, ~384 kbps
скриншот   скриншот   скриншот   скриншот   скриншот   скриншот  

Общее
Полное имя : F:\кино\Страна 03.2015.O.WEB-DLRip.avi
Формат : AVI
Формат/Информация : Audio Video Interleave
Размер файла : 1,47 Гбайт
Продолжительность : 1 ч. 39 м.
Общий поток : 2103 Кбит/сек
Программа кодирования : VirtualDubMod 1.5.10.3 | www.virtualdub-fr.org || (build 2550/release)
Библиотека кодирования : VirtualDubMod build 2550/release

Видео
Идентификатор : 0
Формат : MPEG-4 Visual
Профиль формата : Advanced Simple@L5
Параметр BVOP формата : 2
Параметр QPel формата : Нет
Параметр GMC формата : Без точки перехода
Параметр матрицы формата : Default (H.263)
Идентификатор кодека : XVID
Идентификатор кодека/Подсказка : XviD
Продолжительность : 1 ч. 39 м.
Битрейт : 1709 Кбит/сек
Ширина : 720 пикселей
Высота : 384 пикселя
Соотношение сторон : 1,85:1
Частота кадров : 24,000 кадра/сек
Цветовое пространство : YUV
Субдискретизация насыщенности : 4:2:0
Битовая глубина : 8 бит
Тип развёртки : Прогрессивная
Метод сжатия : С потерями
Бит/(Пиксели*Кадры) : 0.258
Размер потока : 1,19 Гбайт (81%)
Библиотека кодирования : XviD 1.2.1 (UTC 2008-12-04)

Аудио
Идентификатор : 1
Формат : AC-3
Формат/Информация : Audio Coding 3
Расширение режима : CM (complete main)
Параметр Endianness формата : Big
Идентификатор кодека : 2000
Продолжительность : 1 ч. 39 м.
Вид битрейта : Постоянный
Битрейт : 384 Кбит/сек
Каналы : 6 каналов
Расположение каналов : Front: L C R, Side: L R, LFE
Частота : 48,0 КГц
Частота кадров : 31,250 кадров/сек (1536 spf)
Метод сжатия : С потерями
Размер потока : 274 Мбайт (18%)
Выравнивание : Разделение по промежуткам
Продолжительность промежутка : 42 мс. (1,00 видеокадр)
Время предзагрузки промежутка : 500 мс.

pb.wtf



Скачать Страна ОЗ через торрент http://pic.kartinco.top/images/11/xu2s3.jpg Скачать фильм Страна ОЗ через торрент бесплантно в хорошем качестве Описание: Новый год в России — стихия неуправляемая и беспощадная. Именно в это волшебное время непостижимый колорит русской души проявляет ... 7.3 10 16
Торрент: Зарегистрирован [2016-01-05 17:40] · скачан: 725 раз
Статус: √ проверено
Размер: 1.47 GB
Как cкачать? Как скачать Страна ОЗ через торрент | qTorrent

% Раздел Тема Автор DL S | L
# Фильмы (мультфильмы) cо спонсором показа (Новинки AVI/MKV) [ 5.31 GB ] Страна Оз / Ozu Rando / Oz Land [2018 BDRip 720p] MVO ["Синема УС"] bober100 Скачать
2 | 0
T Фильмы (мультфильмы) cо спонсором показа (Новинки AVI/MKV) [ 1.37 GB ] Страна Оз / Ozu Rando / Oz Land [2018 HDRip] MVO ["Синема УС"] bober100 Скачать
1 | 0
Фантастика [ 374 MB ] Егор Чекрыгин - Странный приятель 6. Возвращение в Тооредаан [Книга 2] [TED 2018 56 kbps MP3] bober100 Скачать
1 | 0
Фантастика [ 313 MB ] Егор Чекрыгин - Странный приятель 5. Возвращение в Тооредаан [Книга 1] [TED 2018 56 kbps MP3] bober100 Скачать
1 | 0
Арт-хаус и авторское кино [ 3.08 GB ] Страна ОЗ [2015 WEB-DL 720p] $-DRON-$ Скачать
1 | 0
Наши фильмы (DVD фильмы) [ 7.71 GB ] Страна ОЗ [2015 DVD9] R5 voovaz Скачать
1 | 0

28-11-2019 20:33  

Отключить всю рекламу на сайте

08-01-2016 09:03 Страна ОЗ Скачать торрент  

слишком много мата,идиотов и грязиpb.wtf



24-01-2016 11:23 Страна ОЗ Скачать торрент  

чушь не тратьте времяpb.wtf



25-01-2016 20:51 Страна ОЗ Скачать торрент  

....всех растрелять!..... вы гопники если это посмотритеpb.wtf



    Дорогой пользователь! Огромная просьба, поблагодарите релизера, оцените раздачу и оставьте свои комментарий, если Вы скачали Страна ОЗ через торрент бесплатно! Внесите свою лепту в развитие PiratBit!
    Комментировать посты могут только пользователи прошедшие не сложную регистрацию
    Показать сообщения:    

    Страна ОЗ через торрент
    Скачать бесплатно Страна ОЗ
    Страна ОЗ скачать торрент
    Страна ОЗ смотреть онлайн
    Cкачать фильм Страна ОЗ бесплатно
    Страна ОЗ скачать торрент в хорошем качестве
    Страна ОЗ смотреть онлайн бесплатно в хорошем качестве


    Вы не можете начинать темы
    Вы не можете отвечать на сообщения
    Вы не можете редактировать свои сообщения
    Вы не можете удалять свои сообщения
    Вы не можете голосовать в опросах
    Вы не можете прикреплять файлы к сообщениям
    Вы можете скачивать файлы