Ссылка на приватное зеркало всего за 1$. Внимание количество ограничено!!!

OK

1+1

iTunes

мы

OK

1

WEB-DLRip

Джокер

Пифагор

Ведьмак / The Witcher сериал

Лицензия

ПШазам

ОК

Оно 2

iTunes

30
pack

Вам бонус

ВАЖНО

!!Акция!!

Alien_RageХит недели

RePack

Resident Evil 21

ИГРА 18+

pack

RePack

jed

RePack

fifa19

RePack

Assassins Creed: Odyssey

RePack

NEED FOR SPEED™ PAYBACK

4 сезон

9 сезон

Бесстыжие 9 сезон

Все сериалы

все сериалы на PB.wtf

RePack

FAR CRY 5
  

Преступная деятельность / Criminal Activities (Джеки Эрл Хейли / Jackie Earle Haley) [2015, триллер, драма, криминал, BDRip-AVC от potroks] MVO pb.wtf

Преступная деятельность через торрент pb.wtf

Размер: 2.14 GB | Добавлен: 3 года 11 мес. назад | Торрент скачан:529 раз
Скачать  

31-01-2016 21:15 Преступная деятельность Скачать торрент  

Преступная деятельность / Criminal Activities
Год выпуска: 2015
Страна: США / Capacity Pictures, May Day Movies...
Жанр: триллер, драма, криминал
Продолжительность: 01:33:55
Перевод: Профессиональный (многоголосый) [IDEAFILM]
Субтитры: английские (Full), английские (SDH)
Навигация по главам: есть
Режиссер: Джеки Эрл Хейли / Jackie Earle Haley
В ролях:

Майкл Питт (Zach), Дэн Стивенс (Noah), Кристофер Эбботт (Warren), Роб Браун (Bryce), Эди Гатеги (Marques), Джеки Эрл Хейли (Gerry), Джон Траволта (Eddie), Морган Волк (Janie), Трэвис Аарон (Agent Santos), Алан Б. Джонс (Agent Reichert), Крис Хейли (Matthew), Кристофер Джей Грешам (Little Mike)
Описание: Четверо молодых людей инвестировали деньги в рискованное дело, которое приводит их к конфликту с мафией.

Качество: BDRip-AVC
Формат: MKV
Видео кодек: AVC
Аудио кодек: AC3
Видео: 1152x480 (2.40:1), 2429 kbps, 23,976 fps, 0,183 bit/pixel
Аудио №1: AC3 / 5.1 / 48 kHz / 384 kbps / 16 bit | RUS
Аудио №2: AC3 / 5.1 / 48 kHz / 448 kbps / 16 bit | ENG

Релиз группы:
Автор рипа: potroks

Код:

General
Unique ID                                : 195611894886542438047697400711980868838 (0x93297B078E1CA2C8ACDD81C696D564E6)
Complete name                            : N:\Триллер\Prestupnaya.Deyatelnost.2015.DUAL.BDRip.x264.-HELLYWOOD.mkv
Format                                   : Matroska
Format version                           : Version 4 / Version 2
File size                                : 2.14 GiB
Duration                                 : 1h 33mn
Overall bit rate                         : 3 262 Kbps
Movie name                               : Criminal Activities (2015) - HELLYWOOD
Encoded date                             : UTC 2016-01-31 20:59:09
Writing application                      : mkvmerge v5.9.0 ('On The Loose') built on Dec 15 2012 16:39:58
Writing library                          : libebml v1.3.0 + libmatroska v1.4.0

Video
ID                                       : 1
Format                                   : AVC
Format/Info                              : Advanced Video Codec
Format profile                           : High@L4.1
Format settings, CABAC                   : Yes
Format settings, ReFrames                : 10 frames
Muxing mode                              : Header stripping
Codec ID                                 : V_MPEG4/ISO/AVC
Duration                                 : 1h 33mn
Bit rate                                 : 2 429 Kbps
Width                                    : 1 152 pixels
Height                                   : 480 pixels
Display aspect ratio                     : 2.40:1
Frame rate                               : 23.976 fps
Color space                              : YUV
Chroma subsampling                       : 4:2:0
Bit depth                                : 8 bits
Scan type                                : Progressive
Bits/(Pixel*Frame)                       : 0.183
Stream size                              : 1.55 GiB (73%)
Title                                    : potroks
Writing library                          : x264 core 146 r2538 121396c
Encoding settings                        : cabac=1 / ref=10 / deblock=1:-2:-2 / analyse=0x3:0x113 / me=umh / subme=11 / psy=1 / psy_rd=1.03:0.05 / mixed_ref=1 / me_range=48 / chroma_me=1 / trellis=2 / 8x8dct=1 / cqm=0 / deadzone=21,11 / fast_pskip=0 / chroma_qp_offset=-3 / threads=9 / lookahead_threads=2 / sliced_threads=0 / nr=0 / decimate=0 / interlaced=0 / bluray_compat=0 / constrained_intra=0 / bframes=11 / b_pyramid=2 / b_adapt=2 / b_bias=0 / direct=3 / weightb=1 / open_gop=0 / weightp=2 / keyint=240 / keyint_min=23 / scenecut=40 / intra_refresh=0 / rc_lookahead=60 / rc=2pass / mbtree=0 / bitrate=2429 / ratetol=1.0 / qcomp=0.70 / qpmin=0 / qpmax=69 / qpstep=4 / cplxblur=20.0 / qblur=0.5 / vbv_maxrate=14000 / vbv_bufsize=14000 / nal_hrd=none / filler=0 / ip_ratio=1.40 / pb_ratio=1.30 / aq=1:0.80
Language                                 : English
Default                                  : Yes
Forced                                   : No

Audio #1
ID                                       : 2
Format                                   : AC-3
Format/Info                              : Audio Coding 3
Mode extension                           : CM (complete main)
Muxing mode                              : Header stripping
Codec ID                                 : A_AC3
Duration                                 : 1h 33mn
Bit rate mode                            : Constant
Bit rate                                 : 384 Kbps
Channel(s)                               : 6 channels
Channel positions                        : Front: L C R, Side: L R, LFE
Sampling rate                            : 48.0 KHz
Bit depth                                : 16 bits
Compression mode                         : Lossy
Stream size                              : 258 MiB (12%)
Title                                    : VO | DD 5.1 @ 384 kbps - IDEAFILM
Language                                 : Russian
Default                                  : Yes
Forced                                   : No

Audio #2
ID                                       : 3
Format                                   : AC-3
Format/Info                              : Audio Coding 3
Mode extension                           : CM (complete main)
Muxing mode                              : Header stripping
Codec ID                                 : A_AC3
Duration                                 : 1h 33mn
Bit rate mode                            : Constant
Bit rate                                 : 448 Kbps
Channel(s)                               : 6 channels
Channel positions                        : Front: L C R, Side: L R, LFE
Sampling rate                            : 48.0 KHz
Bit depth                                : 16 bits
Compression mode                         : Lossy
Stream size                              : 301 MiB (14%)
Title                                    : Original | DD 5.1 @ 448 kbps
Language                                 : English
Default                                  : No
Forced                                   : No

Text #1
ID                                       : 4
Format                                   : UTF-8
Codec ID                                 : S_TEXT/UTF8
Codec ID/Info                            : UTF-8 Plain Text
Title                                    : Full
Language                                 : English
Default                                  : No
Forced                                   : No

Text #2
ID                                       : 5
Format                                   : UTF-8
Codec ID                                 : S_TEXT/UTF8
Codec ID/Info                            : UTF-8 Plain Text
Title                                    : SDH
Language                                 : English
Default                                  : No
Forced                                   : No

Menu
00:00:00.000                             : en:Chapter 01
00:10:20.077                             : en:Chapter 02
00:20:28.310                             : en:Chapter 03
00:31:59.792                             : en:Chapter 04
00:39:06.177                             : en:Chapter 05
00:49:21.875                             : en:Chapter 06
00:59:23.017                             : en:Chapter 07
01:12:07.698                             : en:Chapter 08
01:20:02.380                             : en:Chapter 09
01:29:45.296                             : en:Chapter 10
01:33:54.545                             : en:Chapter 11

pb.wtf



Скачать Преступная деятельность через торрент http://i75.fastpic.ru/big/2016/0201/64/ea527d5a9e258cca179301d4b531db64.png Скачать фильм Преступная деятельность через торрент бесплантно в хорошем качестве Описание: Четверо молодых людей инвестировали деньги в рискованное дело, которое приводит их к конфликту с ... 9.9 10 14
Info! Золотая раздача, скачанное не засчитывается.
Торрент: Зарегистрирован [2016-01-31 21:15] · скачан: 529 раз
Статус: √ проверено
Размер: 2.14 GB
Как cкачать? Как скачать Преступная деятельность через торрент | qTorrent

% Раздел Тема Автор DL S | L
R.G. Resident & PiratVoice - Фильмы, Видео [ 2.18 GB ] Преступная деятельность / Criminal Activities [2015 WEB-DLRip-AVC MVO ] R.G.Resident schultz Скачать
1 | 0

28-11-2019 20:33  

Отключить всю рекламу на сайте

31-01-2016 22:00 Преступная деятельность Скачать торрент  

Не плохой фильм. Правильно выбирайте друзей и компаньеновpb.wtf



01-02-2016 04:44 Преступная деятельность Скачать торрент  

Loksli писал(а):

Не плохой фильм. Правильно выбирайте друзей и компаньенов

Ну,скажем на любителяpb.wtf



01-02-2016 21:10 Преступная деятельность Скачать торрент  

Тягомотный по мелочи, но с изюминкой pb.wtf



    Дорогой пользователь! Огромная просьба, поблагодарите релизера, оцените раздачу и оставьте свои комментарий, если Вы скачали Преступная деятельность через торрент бесплатно! Внесите свою лепту в развитие PiratBit!
    Комментировать посты могут только пользователи прошедшие не сложную регистрацию
    Показать сообщения:    

    Преступная деятельность через торрент
    Скачать бесплатно Преступная деятельность
    Преступная деятельность скачать торрент
    Преступная деятельность смотреть онлайн
    Cкачать фильм Преступная деятельность бесплатно
    Преступная деятельность скачать торрент в хорошем качестве
    Преступная деятельность смотреть онлайн бесплатно в хорошем качестве


    Вы не можете начинать темы
    Вы не можете отвечать на сообщения
    Вы не можете редактировать свои сообщения
    Вы не можете удалять свои сообщения
    Вы не можете голосовать в опросах
    Вы не можете прикреплять файлы к сообщениям
    Вы можете скачивать файлы