Ссылка на приватное зеркало нашего сайта всего за 1$. Внимание количество ограничено!!!

2 сезон

iTunes

1 сезон

1

2 сезон

2 сезон

iTunes

1 сезон

RePack

30

Новинка

ВАЖНО

ИГРА 18+

pack

RePack

MK11
pack

Забери бонус

RePack

jed

!!Акция!!

Alien_Rage

RePack

fifa19

RePack

Assassins Creed: Odyssey

RePack

NEED FOR SPEED™ PAYBACK

4 сезон

9 сезон

Бесстыжие 9 сезон

Все сериалы

все сериалы на PB.wtf

RePack

FAR CRY 5
  

Чумовой / Bizarre (Этьен Форе) [2015, мюзикл, драма, мелодрама, WEB-DLRip, Любительский (одноголосый) без рекламы pb.wtf

Чумовой через торрент pb.wtf

Размер: 1.42 GB | Добавлен: 4 года 10 мес. назад | Торрент скачан:169 раз
Скачать  

01-02-2016 10:42 Чумовой Скачать торрент  


Чумовой / Bizarre


ИНФОРМАЦИЯ:
Год выпуска:2015
Страна: Франция, США
Жанр: мюзикл, драма, мелодрама
Продолжительность: 01:35:22
Перевод: Любительский (одноголосый)
Режиссер: Этьен Форе

В Ролях:


Пьер Приер (Maurice), Адриан Джеймс (Luka), Ракель Нейв (Kim), Ребека Андерхилл (Betty), Чарли Химмельштейн (Charlie), Luc Bierme (The Man), Pier Richard (Boxing Man), Freddy Morgan (Freddy, the Beach Boy), Рита Азар (The Girl in the Bar), Майкл Гловер (The Boy in the Bar), Dominique Descamps (The Woman Outside), Руми (играет самого себя)

Описание:
Французский подросток Морис, сбежав из Франции, начинает работать в бруклинском клубе под названием «Чумовой». Очень быстро он становится своего рода талисманом клуба. Владелец клуба и все выступающие в нем артисты просто обожают его, но Морис больше не может любить... из-за секретов его прошлого...

  • Мировая премьера:7 февраля 2015

    ТЕХ.ДАННЫЕ:
    Качество: WEB-DLRip
    Формат: AVI
    Видео: XviD, 720x400 (16:9), 1650 kbps, 24 fps, 0,239 bpp
    Аудио: AC3 / 2.0 / 48 kHz / 384 kbps / 16 bit


    General
    Complete name : D:\Торенты\Brooklyn.Bizarre.2015.WEB-DLRip.avi
    Format : AVI
    Format/Info : Audio Video Interleave
    File size : 1.42 GiB
    Duration : 1h 35mn
    Overall bit rate : 2 127 Kbps
    Writing application : VirtualDubMod 1.5.10.3 (build 2550/release)
    Writing library : VirtualDubMod build 2550/release

    Video
    ID : 0
    Format : MPEG-4 Visual
    Format profile : Simple@L5
    Format settings, BVOP : No
    Format settings, QPel : No
    Format settings, GMC : No warppoints
    Format settings, Matrix : Default (H.263)
    Codec ID : XVID
    Codec ID/Hint : XviD
    Duration : 1h 35mn
    Bit rate : 1 650 Kbps
    Width : 720 pixels
    Height : 400 pixels
    Display aspect ratio : 16:9
    Frame rate : 24.000 fps
    Color space : YUV
    Chroma subsampling : 4:2:0
    Bit depth : 8 bits
    Scan type : Progressive
    Compression mode : Lossy
    Bits/(Pixel*Frame) : 0.239
    Stream size : 1.10 GiB (78%)
    Writing library : Lavc57.16.101

    Audio
    ID : 1
    Format : AC-3
    Format/Info : Audio Coding 3
    Mode extension : CM (complete main)
    Codec ID : 2000
    Duration : 1h 35mn
    Bit rate mode : Constant
    Bit rate : 384 Kbps
    Channel(s) : 2 channels
    Channel positions : Front: L R
    Sampling rate : 48.0 KHz
    Bit depth : 16 bits
    Compression mode : Lossy
    Stream size : 262 MiB (18%)
    Alignment : Split accross interleaves
    Скриншоты:

    © Оформление by .::Ворон::.
    pb.wtf



  • Скачать Чумовой через торрент http://pic.kartinco.top/images/6/ordi9.jpg Скачать фильм Чумовой через торрент бесплантно в хорошем качестве Описание: Французский подросток Морис, сбежав из Франции, начинает работать в бруклинском клубе под названием «Чумовой». Очень быстро он ... 10 10 3
    Торрент: Зарегистрирован [2016-02-01 10:42] · скачан: 169 раз
    Статус: T временная
    Размер: 1.42 GB
    Как cкачать? Как скачать Чумовой через торрент | qTorrent

    28-11-2019 20:33  

    Отключить всю рекламу на сайте

      Дорогой пользователь! Огромная просьба, поблагодарите релизера, оцените раздачу и оставьте свои комментарий, если Вы скачали Чумовой через торрент бесплатно! Внесите свою лепту в развитие PiratBit!
      Комментировать посты могут только пользователи прошедшие не сложную регистрацию
      Показать сообщения:    

      Чумовой через торрент
      Скачать бесплатно Чумовой
      Чумовой скачать торрент
      Чумовой смотреть онлайн
      Cкачать фильм Чумовой бесплатно
      Чумовой скачать торрент в хорошем качестве
      Чумовой смотреть онлайн бесплатно в хорошем качестве


      Вы не можете начинать темы
      Вы не можете отвечать на сообщения
      Вы не можете редактировать свои сообщения
      Вы не можете удалять свои сообщения
      Вы не можете голосовать в опросах
      Вы не можете прикреплять файлы к сообщениям
      Вы можете скачивать файлы