Ссылка на приватное зеркало всего за 1$. Внимание количество ограничено!!!

iTunes

iTunes

iTunes

1

iTunes

iTunes

iTunes

iTunes

iTunes

30
pack

Новость дня

ВАЖНО

!!Акция!!

Alien_RageХит недели

RePack

Resident Evil 21

ИГРА 18+

pack

RePack

jed

!!Акция!!

Alien_Rage

RePack

fifa19

RePack

Assassins Creed: Odyssey

RePack

NEED FOR SPEED™ PAYBACK

4 сезон

9 сезон

Бесстыжие 9 сезон

Все сериалы

все сериалы на PB.wtf

RePack

FAR CRY 5
  

Страна чудес (Дмитрий Дьяченко, Максим Свешников) [2015, комедия, HDRip] [Лицензия] без рекламы pb.wtf

Страна чудес через торрент pb.wtf

Размер: 1.37 GB | Добавлен: 4 года 3 мес. назад | Торрент скачан:825 раз
Скачать  

01-02-2016 15:17 Страна чудес Скачать торрент  


Страна чудес
««Мы такие одни во Вселенной»»

ИНФОРМАЦИЯ:
Год выпуска:2015
Страна: Россия
Жанр: комедия
Продолжительность: 01:23:11
Перевод: Не требуется [Русский]
Режиссер: Дмитрий Дьяченко, Максим Свешников

В Ролях:


Елена Яковлева, Федор Добронравов, Александр Паль, Олеся Железняк, Сергей Лавыгин, Грант Тохатян, Ольга Лерман, Тимофей Трибунцев, Иван Добронравов, Анна Назарова, Евгения Розанова (Марина), Светлана Смирнова-Марцинкевич (Маша)

Описание:
Герои фильма - жители самых разных уголков нашей страны, самые обычные люди, с которыми случаются самые необычные вещи, просто чудеса какие-то.
Семье пожарных Семёну и Любе из Костромы выпадает шанс осуществить заветную мечту: поехать в Москву на любимую программу «Поле Чудес», где им предстоит сделать выбор всей жизни «приз или деньги?». Неопытный ППСник, но опытный неудачник Саня должен не только пережить свой первый день в патруле, но ещё принять роды у своей жены и реанимировать своего напарника. Четвёрка новоиспечённых приятелей должна во что бы то ни стало в нелётную погоду улететь в Москву, а пара юных влюблённых каким-то непостижимым способом - примирить своих непримиримых родителей. А Валере вообще предстоит решить дилемму: спасать человечество от всемирного потопа или просто улететь с дружками по караоке - пришельцами, на их cтареньком НЛО?
Всё это может случиться только раз в году, 31 декабря! И только у нас! Всё-таки... Мы такие одни во вселенной.


ТЕХ.ДАННЫЕ:
Качество: HDRip
Формат: AVI
Видео: XviD, 720x304 (2.35:1), 1894 kbps, 24 fps, 0,361 bpp
Аудио: AC3 / 5.1 / 48 kHz / 448 kbps / 16 bit


General
Complete name : D:\Торенты\Strana.CHudeS.2016.O.HDRip.14OOMB.avi
Format : AVI
Format/Info : Audio Video Interleave
File size : 1.37 GiB
Duration : 1h 23mn
Overall bit rate : 2 352 Kbps
Writing application : VirtualDubMod 1.5.10.2 (build 2540/release)
Writing library : VirtualDubMod build 2540/release

Video
ID : 0
Format : MPEG-4 Visual
Format profile : Advanced Simple@L5
Format settings, BVOP : 2
Format settings, QPel : No
Format settings, GMC : No warppoints
Format settings, Matrix : Default (MPEG)
Codec ID : XVID
Codec ID/Hint : XviD
Duration : 1h 23mn
Bit rate : 1 895 Kbps
Width : 720 pixels
Height : 304 pixels
Display aspect ratio : 2.35:1
Frame rate : 24.000 fps
Color space : YUV
Chroma subsampling : 4:2:0
Bit depth : 8 bits
Scan type : Progressive
Compression mode : Lossy
Bits/(Pixel*Frame) : 0.361
Stream size : 1.10 GiB (81%)
Writing library : XviD 1.2.1 (UTC 2008-12-04)

Audio
ID : 1
Format : AC-3
Format/Info : Audio Coding 3
Mode extension : CM (complete main)
Codec ID : 2000
Duration : 1h 23mn
Bit rate mode : Constant
Bit rate : 448 Kbps
Channel(s) : 6 channels
Channel positions : Front: L C R, Side: L R, LFE
Sampling rate : 48.0 KHz
Bit depth : 16 bits
Compression mode : Lossy
Stream size : 267 MiB (19%)
Alignment : Split accross interleaves
Interleave, duration : 42 ms (1.00 video frame)
Interleave, preload duration : 500 ms
Скриншоты:

© Оформление by .::Ворон::.
pb.wtf



Скачать Страна чудес через торрент http://pic.kartinco.top/images/6/ordi9.jpg Скачать фильм Страна чудес через торрент бесплантно в хорошем качестве Описание: Герои фильма - жители самых разных уголков нашей страны, самые обычные люди, с которыми случаются самые необычные вещи, просто ... 8.9 10 19
Торрент: Зарегистрирован [2016-02-01 15:17] · скачан: 825 раз
Статус: √ проверено
Размер: 1.37 GB
Как cкачать? Как скачать Страна чудес через торрент | qTorrent

28-11-2019 20:33  

Отключить всю рекламу на сайте

01-02-2016 16:48 Страна чудес Скачать торрент  

кто хочет поблевать- прошу к просмотруpb.wtf



01-02-2016 18:38 Страна чудес Скачать торрент  

Увидел кто в ролях заплакал вспомнив горько и ту травму которую они мне нанеслиpb.wtf



01-02-2016 19:27 Страна чудес Скачать торрент  

отвратительный фильмpb.wtf



04-02-2016 18:20 Страна чудес Скачать торрент  

vit30691733 писал(а):

отвратительный фильм

ничего удивительногоpb.wtf



06-02-2016 20:14 Страна чудес Скачать торрент  

как звук?pb.wtf



    Дорогой пользователь! Огромная просьба, поблагодарите релизера, оцените раздачу и оставьте свои комментарий, если Вы скачали Страна чудес через торрент бесплатно! Внесите свою лепту в развитие PiratBit!
    Комментировать посты могут только пользователи прошедшие не сложную регистрацию
    Показать сообщения:    

    Страна чудес через торрент
    Скачать бесплатно Страна чудес
    Страна чудес скачать торрент
    Страна чудес смотреть онлайн
    Cкачать фильм Страна чудес бесплатно
    Страна чудес скачать торрент в хорошем качестве
    Страна чудес смотреть онлайн бесплатно в хорошем качестве


    Вы не можете начинать темы
    Вы не можете отвечать на сообщения
    Вы не можете редактировать свои сообщения
    Вы не можете удалять свои сообщения
    Вы не можете голосовать в опросах
    Вы не можете прикреплять файлы к сообщениям
    Вы можете скачивать файлы