2 сезон

iTunes

1 сезон

1

iTunes

iTunes

iTunes

1 сезон

RePack

30

ИГРА 18+

pack

ВАЖНО

!!Акция!!

Alien_RageХит недели

RePack

MK11
pack

Забери бонус

RePack

jed

!!Акция!!

Alien_Rage

RePack

fifa19

RePack

Assassins Creed: Odyssey

RePack

NEED FOR SPEED™ PAYBACK

4 сезон

9 сезон

Бесстыжие 9 сезон

Все сериалы

все сериалы на PB.wtf

RePack

FAR CRY 5
  

Любите Куперов / Love the Coopers (Джесси Нельсон) [2015, комедия, BDRip 720p] [Dub] [iTunes] pb.wtf

Любите Куперов через торрент pb.wtf

Размер: 5.75 GB | Добавлен: 4 года 8 мес. назад | Торрент скачан:208 раз
Скачать  

02-02-2016 08:50 Любите Куперов Скачать торрент  

Любите Куперов / Love the Coopers
Год выхода: 2015
Жанр: комедия
Выпущено: США / Gary Sanchez Productions, Good Universe, Paramount Pictures
Продолжительность: 01:47:06
Озвучивание: Дублированное [iTunes]

Режиссер: Джесси Нельсон

В ролях: Дайан Китон, Джон Гудман, Аманда Сайфред, Эд Хелмс, Алекс Борштейн, Тимоти Чаламет, Максвелл Симкинс, Блейк Баумгартнер, Алан Аркин, Дэн Амбойер

Описание: Феерическая рождественская комедия о том, что бывает, когда на праздник собираются представители четырех поколений одной большой семьи…



Файл
Качество: BDRip 720p
Формат: MKV
Видео: V_MPEG4/ISO/AVC, 5794 Кбит/с, 1280x536, 23,976 fps
Аудио: 48.0 KHz, AC3, 6 ch, 384 Кбит/с [DUB]
Аудио: 48.0 KHz, DTS, 1509 kb/s, 6 ch [ENG]
General
Unique ID : 254400227256094615301807007919898559583 (0xBF63B398FC9DCA70A72EDD62ED6F045F)
Complete name : E:\INTERNET\Coop.2105.D.BDRip.720P.mkv
Format : Matroska
Format version : Version 2
File size : 5.61 GiB
Duration : 1h 47mn
Overall bit rate : 7 497 Kbps
Encoded date : UTC 2016-01-28 02:51:31
Writing application : mkvmerge v8.3.0 ('Over the Horizon') 64bit
Writing library : libebml v1.3.1 + libmatroska v1.4.2

Video
ID : 2
Format : AVC
Format/Info : Advanced Video Codec
Format profile : High@L4.1
Format settings, CABAC : Yes
Format settings, ReFrames : 5 frames
Codec ID : V_MPEG4/ISO/AVC
Duration : 1h 47mn
Bit rate : 5 794 Kbps
Width : 1 280 pixels
Height : 536 pixels
Display aspect ratio : 2.40:1
Frame rate mode : Constant
Frame rate : 23.976 fps
Color space : YUV
Chroma subsampling : 4:2:0
Bit depth : 8 bits
Scan type : Progressive
Bits/(Pixel*Frame) : 0.352
Stream size : 4.22 GiB (75%)
Writing library : x264 core 148 r2665 a01e339
Encoding settings : cabac=1 / ref=5 / deblock=1:0:0 / analyse=0x3:0x133 / me=umh / subme=7 / psy=1 / psy_rd=1.00:0.00 / mixed_ref=1 / me_range=16 / chroma_me=1 / trellis=1 / 8x8dct=1 / cqm=0 / deadzone=21,11 / fast_pskip=0 / chroma_qp_offset=-2 / threads=17 / lookahead_threads=2 / sliced_threads=0 / nr=0 / decimate=1 / interlaced=0 / bluray_compat=0 / constrained_intra=0 / bframes=3 / b_pyramid=2 / b_adapt=1 / b_bias=0 / direct=1 / weightb=1 / open_gop=0 / weightp=2 / keyint=250 / keyint_min=23 / scenecut=40 / intra_refresh=0 / rc_lookahead=40 / rc=2pass / mbtree=1 / bitrate=5794 / ratetol=1.0 / qcomp=0.60 / qpmin=0 / qpmax=69 / qpstep=4 / cplxblur=20.0 / qblur=0.5 / ip_ratio=1.40 / aq=1:1.00
Language : English
Default : Yes
Forced : No

Audio #1
ID : 1
Format : MPEG Audio
Format version : Version 1
Format profile : Layer 3
Mode : Joint stereo
Mode extension : MS Stereo
Codec ID : A_MPEG/L3
Codec ID/Hint :AC3
Duration : 1h 47mn
Bit rate mode : Constant
Bit rate : 384 Kbps
Channel(s) : 6 channels
Sampling rate : 48.0 KHz
Compression mode : Lossy
Stream size : 147 MiB (3%)
Default : Yes
Forced : No

Audio #2
ID : 3
Format : DTS
Format/Info : Digital Theater Systems
Mode : 16
Format settings, Endianness : Big
Codec ID : A_DTS
Duration : 1h 47mn
Bit rate mode : Constant
Bit rate : 1 509 Kbps
Channel(s) : 6 channels
Channel positions : Front: L C R, Side: L R, LFE
Sampling rate : 48.0 KHz
Bit depth : 24 bits
Compression mode : Lossy
Stream size : 1.13 GiB (20%)
Language : English
Default : No
Forced : No

Menu
00:00:00.000 : en:00:00:00.000
00:08:00.980 : en:00:08:00.980
00:15:39.480 : en:00:15:39.480
00:25:04.336 : en:00:25:04.336
00:31:57.290 : en:00:31:57.290
00:37:10.228 : en:00:37:10.228
00:42:54.280 : en:00:42:54.280
00:51:20.953 : en:00:51:20.953
00:56:59.499 : en:00:56:59.499
01:01:31.187 : en:01:01:31.187
01:08:51.210 : en:01:08:51.210
01:13:29.739 : en:01:13:29.739
01:21:34.848 : en:01:21:34.848
01:27:21.778 : en:01:27:21.778
01:33:52.001 : en:01:33:52.001
01:38:46.504 : en:01:38:46.504[/code]
pb.wtf



Скачать Любите Куперов через торрент http://i67.fastpic.ru/big/2016/0125/87/d43aea24d87a69feb6e79e219e820d87.jpg Скачать фильм Любите Куперов через торрент бесплантно в хорошем качестве Описание: Феерическая рождественская комедия о том, что бывает, когда на праздник собираются представители четырех поколений одной ... 7 10 6
Торрент: Зарегистрирован [2016-02-02 08:50] · скачан: 208 раз
Статус: T временная
Размер: 5.75 GB
Как cкачать? Как скачать Любите Куперов через торрент | qTorrent

% Раздел Тема Автор DL S | L
Фильмы 2015 [DVDrip, WEB-DLRip, HDrip] [ 2.05 GB ] Любите Куперов / Love the Coopers [2015 HDRip "BD RUS"] coc900 Скачать
1 | 0
Фильмы 2015 [DVDrip, WEB-DLRip, HDrip] [ 1.46 GB ] Любите Куперов / Love the Coopers [2015 BDRip-AVC] DUB potroks Скачать
1 | 0
Фильмы [HD 720p, 1080p] (Хороший звук DUB, MVO) [ 8.54 GB ] Любите Куперов / Love the Coopers [2015 BDRip 1080p / ] Ворон Скачать
1 | 0
Фильмы 2015 [DVDrip, WEB-DLRip, HDrip] [ 1.46 GB ] Любите Куперов / Love the Coopers [2015 BDRip] DUB Twi7ter Скачать
1 | 0
R.G. Resident & PiratVoice - Фильмы, Видео [ 7.56 GB ] Любите Куперов / Love the Coopers [2015 BDRip 1080p ] schultz Скачать
1 | 0
Фильмы 2015 [DVDrip, WEB-DLRip, HDrip] [ 2.18 GB ] Любите Куперов / Love the Coopers [2015 BDRip-AVC] DUB potroks Скачать
1 | 0
Фильмы 2015 [DVDrip, WEB-DLRip, HDrip] [ 1.45 GB ] Любите Куперов / Love the Coopers [2015 HDRip] ] Ворон Скачать
2 | 0

28-11-2019 20:33  

Отключить всю рекламу на сайте

    Дорогой пользователь! Огромная просьба, поблагодарите релизера, оцените раздачу и оставьте свои комментарий, если Вы скачали Любите Куперов через торрент бесплатно! Внесите свою лепту в развитие PiratBit!
    Комментировать посты могут только пользователи прошедшие не сложную регистрацию
    Показать сообщения:    

    Любите Куперов через торрент
    Скачать бесплатно Любите Куперов
    Любите Куперов скачать торрент
    Любите Куперов смотреть онлайн
    Cкачать фильм Любите Куперов бесплатно
    Любите Куперов скачать торрент в хорошем качестве
    Любите Куперов смотреть онлайн бесплатно в хорошем качестве


    Вы не можете начинать темы
    Вы не можете отвечать на сообщения
    Вы не можете редактировать свои сообщения
    Вы не можете удалять свои сообщения
    Вы не можете голосовать в опросах
    Вы не можете прикреплять файлы к сообщениям
    Вы можете скачивать файлы