Ссылка на приватное зеркало нашего сайта всего за 1$. Внимание количество ограничено!!!

2 сезон

iTunes

1 сезон

1

iTunes

iTunes

iTunes

1 сезон

RePack

30

ИГРА 18+

pack

ВАЖНО

!!Акция!!

Alien_RageХит недели

RePack

MK11
pack

Забери бонус

RePack

jed

!!Акция!!

Alien_Rage

RePack

fifa19

RePack

Assassins Creed: Odyssey

RePack

NEED FOR SPEED™ PAYBACK

4 сезон

9 сезон

Бесстыжие 9 сезон

Все сериалы

все сериалы на PB.wtf

RePack

FAR CRY 5
  

Смерть зимой / Dead of Winter (Артур Пенн) [1987, ужасы, триллер, драма, BDRip 1080p by msltel] 2 x MVO, DVO, AVO pb.wtf

Смерть зимой через торрент pb.wtf

Размер: 9.68 GB | Добавлен: 4 года 8 мес. назад | Торрент скачан:7 раз
Скачать  

02-02-2016 10:00 Смерть зимой Скачать торрент  

Название: Смерть зимой
Оригинальное название: Dead of Winter
Год выпуска: 1987
Страна: США
Жанр: ужасы, триллер, драма
Продолжительность: 01:40:40
Перевод: профессиональный многоголосый, профессиональный двухголосый, авторский

Режиссёр: Артур Пенн

В ролях: Мэри Стинберген, Родди МакДауэлл, Ян Рубес, Уильям Расс, Кен Поуг, Уэйн Робсон, Марк Мэлоун, Майкл Коупмен, Сэм Малкин, Памела Моллер

Описание: Молодая нью-йоркская актриса Кэти получает приглашение на пробы, что вполне может стать шансом в её жизни. Она попадает в заснеженный викторианский особняк в Канаде, в котором живут двое мужчин. Начинаются странные вещи: отключается телефон, машина не заводится... Кэти в ловушке, и всё превращается в игру интриг и чёрный кошмар... Основой для сценария послужила новелла Энтони Гилберта "Женщина в красном".



Качество: BDRip 1080p Сравнение с исходником
Формат: MKV
Видео: MPEG-4 AVC, 12.8 Mбит/с, 1920x1040, 23,976 кадра/с
Аудио 1: русский, AC3, 192 kbps, 2 ch, 48 kHz [профессиональный многоголосый, OPT]
Аудио 2: русский, AC3, 192 kbps, 2 ch, 48 kHz [профессиональный многоголосый, TB3]
Аудио 3: русский, AC3, 192 kbps, 2 ch, 48 kHz [профессиональный двухголосый, HTB+]
Аудио 4: русский, AC3, 192 kbps, 2 ch, 48 kHz [авторский, Алексей Михалёв]
Аудио 5: английский, AC3, 192 kbps, 2 ch, 48 kHz [оригинал]
Субтитры: английские
Общее
Уникальный идентификатор : 252108446433182454976591764951129813152 (0xBDAA52144638073599012AF5D19E70A0)
Полное имя : D:\Video\Смерть зимой.1987.BDRip.1080p.mkv
Формат : Matroska
Версия формата : Version 4 / Version 2
Размер файла : 9,68 Гбайт
Продолжительность : 1 ч. 40 м.
Общий поток : 13,8 Мбит/сек
Дата кодирования : UTC 2016-02-02 07:46:23
Программа кодирования : mkvmerge v8.2.0 ('World of Adventure') 64bit
Библиотека кодирования : libebml v1.3.1 + libmatroska v1.4.2

Видео
Идентификатор : 1
Формат : AVC
Формат/Информация : Advanced Video Codec
Профиль формата : High@L4.1
Параметр CABAC формата : Да
Параметр ReFrames формата : 4 кадра
Идентификатор кодека : V_MPEG4/ISO/AVC
Продолжительность : 1 ч. 40 м.
Битрейт : 12,8 Мбит/сек
Ширина : 1920 пикселей
Высота : 1040 пикселей
Соотношение сторон : 1,85:1
Режим частоты кадров : Постоянный
Частота кадров : 23,976 (24000/1001) кадра/сек
Цветовое пространство : YUV
Субдискретизация насыщенности : 4:2:0
Битовая глубина : 8 бит
Тип развёртки : Прогрессивная
Бит/(Пиксели*Кадры) : 0.267
Размер потока : 9,00 Гбайт (93%)
Библиотека кодирования : x264 core 146 r2538 121396c
Настройки программы : cabac=1 / ref=4 / deblock=1:-3:-3 / analyse=0x3:0x113 / me=umh / subme=10 / psy=1 / psy_rd=1.00:0.15 / mixed_ref=1 / me_range=32 / chroma_me=1 / trellis=2 / 8x8dct=1 / cqm=0 / deadzone=21,11 / fast_pskip=1 / chroma_qp_offset=-3 / threads=6 / lookahead_threads=1 / sliced_threads=0 / nr=0 / decimate=1 / interlaced=0 / bluray_compat=0 / constrained_intra=0 / bframes=14 / b_pyramid=2 / b_adapt=2 / b_bias=0 / direct=1 / weightb=1 / open_gop=0 / weightp=2 / keyint=230 / keyint_min=23 / scenecut=40 / intra_refresh=0 / rc_lookahead=40 / rc=crf / mbtree=0 / crf=21.2 / qcomp=0.60 / qpmin=0 / qpmax=69 / qpstep=4 / vbv_maxrate=40000 / vbv_bufsize=50000 / crf_max=0.0 / nal_hrd=none / filler=0 / ip_ratio=1.40 / pb_ratio=1.30 / aq=1:1.00
Язык : English
Default : Да
Forced : Нет

Аудио #1
Идентификатор : 2
Формат : AC-3
Формат/Информация : Audio Coding 3
Расширение режима : CM (complete main)
Параметр Endianness формата : Big
Идентификатор кодека : A_AC3
Продолжительность : 1 ч. 40 м.
Вид битрейта : Постоянный
Битрейт : 192 Кбит/сек
Каналы : 2 канала
Расположение каналов : Front: L R
Частота : 48,0 КГц
Частота кадров : 31,250 кадров/сек (1536 spf)
Метод сжатия : С потерями
Размер потока : 138 Мбайт (1%)
Заголовок : MVO (OPT)
Язык : Russian
Default : Да
Forced : Нет

Аудио #2
Идентификатор : 3
Формат : AC-3
Формат/Информация : Audio Coding 3
Расширение режима : CM (complete main)
Параметр Endianness формата : Big
Идентификатор кодека : A_AC3
Продолжительность : 1 ч. 40 м.
Вид битрейта : Постоянный
Битрейт : 192 Кбит/сек
Каналы : 2 канала
Расположение каналов : Front: L R
Частота : 48,0 КГц
Частота кадров : 31,250 кадров/сек (1536 spf)
Метод сжатия : С потерями
Размер потока : 138 Мбайт (1%)
Заголовок : MVO (TB3)
Язык : Russian
Default : Нет
Forced : Нет

Аудио #3
Идентификатор : 4
Формат : AC-3
Формат/Информация : Audio Coding 3
Расширение режима : CM (complete main)
Параметр Endianness формата : Big
Идентификатор кодека : A_AC3
Продолжительность : 1 ч. 40 м.
Вид битрейта : Постоянный
Битрейт : 192 Кбит/сек
Каналы : 2 канала
Расположение каналов : Front: L R
Частота : 48,0 КГц
Частота кадров : 31,250 кадров/сек (1536 spf)
Метод сжатия : С потерями
Размер потока : 138 Мбайт (1%)
Заголовок : DVO (HTB+)
Язык : Russian
Default : Нет
Forced : Нет

Аудио #4
Идентификатор : 5
Формат : AC-3
Формат/Информация : Audio Coding 3
Расширение режима : CM (complete main)
Параметр Endianness формата : Big
Идентификатор кодека : A_AC3
Продолжительность : 1 ч. 40 м.
Вид битрейта : Постоянный
Битрейт : 192 Кбит/сек
Каналы : 2 канала
Расположение каналов : Front: L R
Частота : 48,0 КГц
Частота кадров : 31,250 кадров/сек (1536 spf)
Метод сжатия : С потерями
Размер потока : 138 Мбайт (1%)
Заголовок : AVO (Алексей Михалёв)
Язык : Russian
Default : Нет
Forced : Нет

Аудио #5
Идентификатор : 6
Формат : AC-3
Формат/Информация : Audio Coding 3
Расширение режима : CM (complete main)
Параметр Endianness формата : Big
Идентификатор кодека : A_AC3
Продолжительность : 1 ч. 40 м.
Вид битрейта : Постоянный
Битрейт : 192 Кбит/сек
Каналы : 2 канала
Расположение каналов : Front: L R
Частота : 48,0 КГц
Частота кадров : 31,250 кадров/сек (1536 spf)
Метод сжатия : С потерями
Размер потока : 138 Мбайт (1%)
Заголовок : Original
Язык : English
Default : Нет
Forced : Нет

Текст
Идентификатор : 7
Формат : UTF-8
Идентификатор кодека : S_TEXT/UTF8
Идентификатор кодека/Информация : UTF-8 Plain Text
Продолжительность : 1 ч. 33 м.
Битрейт : 41 бит/сек
Count of elements : 1055
Размер потока : 28,6 Кбайт (0%)
Заголовок : английский
Язык : English
Default : Нет
Forced : Нет
pb.wtf



Скачать Смерть зимой через торрент http://i75.fastpic.ru/big/2016/0131/73/ec70d742446a29f0f2199d3bcd9b2773.jpg Скачать фильм Смерть зимой через торрент бесплантно в хорошем качестве Описание: Молодая нью-йоркская актриса Кэти получает приглашение на пробы, что вполне может стать шансом в её жизни. Она попадает в ... 5.5 10 2
Info! Золотая раздача, скачанное не засчитывается.
Торрент: Зарегистрирован [2016-02-02 10:00] · скачан: 7 раз
Статус: √ проверено
Размер: 9.68 GB
Как cкачать? Как скачать Смерть зимой через торрент | qTorrent

% Раздел Тема Автор DL S | L
Фильмы [HD 720p, 1080p] (Хороший звук DUB, MVO) [ 4.11 GB ] Смерть зимой / Dead of Winter [1987 BDRip 720p by msltel] 2 x MVO DVO AVO msltel Скачать
1 | 0
Фильмы до 2000 г. [ 2.43 GB ] Смерть зимой / Dead of Winter [1987 BDRip AVC by msltel] 2 x MVO DVO AVO msltel Скачать
1 | 0

28-11-2019 20:33  

Отключить всю рекламу на сайте

05-02-2016 05:53 Смерть зимой Скачать торрент  

Спасибо за хорошее кино.)pb.wtf



    Дорогой пользователь! Огромная просьба, поблагодарите релизера, оцените раздачу и оставьте свои комментарий, если Вы скачали Смерть зимой через торрент бесплатно! Внесите свою лепту в развитие PiratBit!
    Комментировать посты могут только пользователи прошедшие не сложную регистрацию
    Показать сообщения:    

    Смерть зимой через торрент
    Скачать бесплатно Смерть зимой
    Смерть зимой скачать торрент
    Смерть зимой смотреть онлайн
    Cкачать фильм Смерть зимой бесплатно
    Смерть зимой скачать торрент в хорошем качестве
    Смерть зимой смотреть онлайн бесплатно в хорошем качестве


    Вы не можете начинать темы
    Вы не можете отвечать на сообщения
    Вы не можете редактировать свои сообщения
    Вы не можете удалять свои сообщения
    Вы не можете голосовать в опросах
    Вы не можете прикреплять файлы к сообщениям
    Вы можете скачивать файлы