Ссылка на приватное зеркало всего за 1$. Внимание количество ограничено!!!

OK

1+1

iTunes

мы

OK

1

WEB-DLRip

Джокер

Пифагор

Ведьмак / The Witcher сериал

Лицензия

ПШазам

ОК

Оно 2

iTunes

30
pack

Вам бонус

ВАЖНО

!!Акция!!

Alien_RageХит недели

RePack

Resident Evil 21

ИГРА 18+

pack

RePack

jed

!!Акция!!

Alien_Rage

RePack

fifa19

RePack

Assassins Creed: Odyssey

RePack

NEED FOR SPEED™ PAYBACK

4 сезон

9 сезон

Бесстыжие 9 сезон

Все сериалы

все сериалы на PB.wtf

RePack

FAR CRY 5
  

Любите Куперов / Love the Coopers (Джесси Нельсон / Jessie Nelson) [2015, комедия, BDRip-AVC от potroks] DUB Лицензия pb.wtf

Любите Куперов через торрент pb.wtf

Размер: 1.46 GB | Добавлен: 3 года 10 мес. назад | Торрент скачан:273 раза
Скачать  

02-02-2016 10:47 Любите Куперов Скачать торрент  

Любите Куперов / Love the Coopers
«Christmas means comfort, joy and chaos»
Год выпуска: 2015
Страна: США / CBS Films, Groundswell Productions, Imagine Entertainment
Жанр: комедия
Продолжительность: 01:47:06
Перевод: Дубляж [BD RUS]
Субтитры: английские (Full), английские (SDH)
Режиссер: Джесси Нельсон / Jessie Nelson
В ролях:

Дайан Китон (Charlotte), Джон Гудман (Sam), Эд Хелмс (Hank), Алекс Борштейн (Angie), Тимоти Чаламет (Charlie), Максвелл Симкинс (Bo), Блейк Баумгартнер (Madison), Аманда Сайфред (Ruby), Алан Аркин (Bucky), Дэн Амбойер (Handsome Young Man at Diner), Мариса Томей (Emma), Scott Garan (Department Store Security Guard)
Описание: Феерическая рождественская комедия о том, что бывает, когда на праздник собираются представители четырех поколений одной большой семьи...

Качество: BDRip-AVC
Формат: MKV
Видео кодек: AVC
Аудио кодек: AC3
Видео: 960x400 (2.40:1), 1504 kbps, 23,976 fps, 0,163 bit/pixel
Аудио: AC3 / 5.1 / 48 kHz / 448 kbps / 16 bit

Релиз группы:
Автор рипа: potroks

Код:

Общее
Уникальный идентификатор : 244452352711094844612699441747861792943 (0xB7E7CF83E3A8358098157BCFF2F168AF)
Полное имя : Lubite.Kuperov.2015.RUS.BDRip.x264.-HELLYWOOD.mkv
Формат : Matroska
Версия формата : Version 4 / Version 2
Размер файла : 1,46 Гбайт
Продолжительность : 1 ч. 47 м.
Общий поток : 1954 Кбит/сек
Название фильма : Love the Coopers (2015) - HELLYWOOD
Дата кодирования : UTC 2016-02-28 07:30:59
Программа кодирования : mkvmerge v5.9.0 ('On The Loose') built on Dec 15 2012 16:39:58
Библиотека кодирования : libebml v1.3.0 + libmatroska v1.4.0

Видео
Идентификатор : 1
Формат : AVC
Формат/Информация : Advanced Video Codec
Профиль формата : High@L4.1
Параметр CABAC формата : Да
Параметр ReFrames формата : 12 кадров
Идентификатор кодека : V_MPEG4/ISO/AVC
Продолжительность : 1 ч. 47 м.
Битрейт : 1504 Кбит/сек
Ширина : 960 пикселей
Высота : 400 пикселей
Соотношение сторон : 2,40:1
Режим частоты кадров : Постоянный
Частота кадров : 23,976 кадра/сек
Цветовое пространство : YUV
Субдискретизация насыщенности : 4:2:0
Битовая глубина : 8 бит
Тип развёртки : Прогрессивная
Бит/(Пиксели*Кадры) : 0.163
Размер потока : 1,10 Гбайт (75%)
Заголовок : potroks
Библиотека кодирования : x264 core 148 r2665M a01e339
Настройки программы : cabac=1 / ref=12 / deblock=1:-2:-2 / analyse=0x3:0x133 / me=umh / subme=11 / psy=1 / psy_rd=1.05:0.10 / mixed_ref=1 / me_range=48 / chroma_me=1 / trellis=2 / 8x8dct=1 / cqm=0 / deadzone=21,11 / fast_pskip=0 / chroma_qp_offset=-3 / threads=9 / lookahead_threads=2 / sliced_threads=0 / nr=0 / decimate=1 / interlaced=0 / bluray_compat=0 / constrained_intra=0 / bframes=13 / b_pyramid=2 / b_adapt=2 / b_bias=0 / direct=3 / weightb=1 / open_gop=0 / weightp=2 / keyint=240 / keyint_min=23 / scenecut=40 / intra_refresh=0 / rc=2pass / mbtree=0 / bitrate=1504 / ratetol=1.0 / qcomp=0.70 / qpmin=0 / qpmax=69 / qpstep=4 / cplxblur=20.0 / qblur=0.5 / ip_ratio=1.35 / pb_ratio=1.25 / aq=1:0.80
Язык : English
Default : Да
Forced : Нет

Аудио
Идентификатор : 2
Формат : AC-3
Формат/Информация : Audio Coding 3
Расширение режима : CM (complete main)
Параметр Endianness формата : Big
Идентификатор кодека : A_AC3
Продолжительность : 1 ч. 47 м.
Вид битрейта : Постоянный
Битрейт : 448 Кбит/сек
Каналы : 6 каналов
Расположение каналов : Front: L C R, Side: L R, LFE
Частота : 48,0 КГц
Метод сжатия : С потерями
Размер потока : 343 Мбайт (23%)
Заголовок : Dub | DD 5.1 @ 448 kbps - Blu-Ray RUS
Язык : Russian
Default : Да
Forced : Нет

Текст #1
Идентификатор : 3
Формат : UTF-8
Идентификатор кодека : S_TEXT/UTF8
Идентификатор кодека/Информация : UTF-8 Plain Text
Заголовок : Full
Язык : English
Default : Нет
Forced : Нет

Текст #2
Идентификатор : 4
Формат : UTF-8
Идентификатор кодека : S_TEXT/UTF8
Идентификатор кодека/Информация : UTF-8 Plain Text
Заголовок : SDH
Язык : English
Default : Нет
Forced : Нет

Меню
00:00:00.000 : en:Chapter 1
00:08:00.980 : en:Chapter 2
00:15:39.536 : en:Chapter 3
00:25:04.455 : en:Chapter 4
00:31:57.409 : en:Chapter 5
00:37:10.347 : en:Chapter 6
00:42:54.399 : en:Chapter 7
00:51:21.072 : en:Chapter 8
00:56:59.658 : en:Chapter 9
01:01:31.346 : en:Chapter 10
01:08:51.369 : en:Chapter 11
01:13:29.925 : en:Chapter 12
01:21:35.035 : en:Chapter 13
01:27:21.965 : en:Chapter 14
01:33:52.188 : en:Chapter 15
01:38:46.691 : en:Chapter 16

pb.wtf



Скачать Любите Куперов через торрент http://i73.fastpic.ru/big/2016/0227/98/901935a5785c6ed422f3b987d593c898.png Скачать фильм Любите Куперов через торрент бесплантно в хорошем качестве Описание: Феерическая рождественская комедия о том, что бывает, когда на праздник собираются представители четырех поколений одной большой ... 8.6 10 19
Info! Золотая раздача, скачанное не засчитывается.
Торрент: Зарегистрирован [2016-02-28 07:51] · скачан: 273 раз
Статус: √ проверено
Размер: 1.46 GB
Как cкачать? Как скачать Любите Куперов через торрент | qTorrent

% Раздел Тема Автор DL S | L
Фильмы 2015 [DVDrip, WEB-DLRip, HDrip] [ 1.46 GB ] Любите Куперов / Love the Coopers [2015 BDRip] DUB Twi7ter Скачать
1 | 0
Фильмы 2015 [DVDrip, WEB-DLRip, HDrip] [ 2.18 GB ] Любите Куперов / Love the Coopers [2015 BDRip-AVC] DUB potroks Скачать
2 | 0


Последний раз редактировалось: potroks (2016-02-28 07:51), всего редактировалось 3 раз(а)

28-11-2019 20:33  

Отключить всю рекламу на сайте

27-02-2016 11:57 Любите Куперов Скачать торрент  

Хороший, добрый фильм, в кругу семьи посмотреть, то что надо.pb.wtf



28-02-2016 10:04 Любите Куперов Скачать торрент  

Комедии здесь нет вообще.Шутками и юмором тут вообще даже и не пахнет!Этот фильм скорее мелодрама,или драма вовсе.Фильм про тяжелые отношения в кругу родни.В фильме кроме разговоров не происходит вообще ничего.pb.wtf



    Дорогой пользователь! Огромная просьба, поблагодарите релизера, оцените раздачу и оставьте свои комментарий, если Вы скачали Любите Куперов через торрент бесплатно! Внесите свою лепту в развитие PiratBit!
    Комментировать посты могут только пользователи прошедшие не сложную регистрацию
    Показать сообщения:    

    Любите Куперов через торрент
    Скачать бесплатно Любите Куперов
    Любите Куперов скачать торрент
    Любите Куперов смотреть онлайн
    Cкачать фильм Любите Куперов бесплатно
    Любите Куперов скачать торрент в хорошем качестве
    Любите Куперов смотреть онлайн бесплатно в хорошем качестве


    Вы не можете начинать темы
    Вы не можете отвечать на сообщения
    Вы не можете редактировать свои сообщения
    Вы не можете удалять свои сообщения
    Вы не можете голосовать в опросах
    Вы не можете прикреплять файлы к сообщениям
    Вы можете скачивать файлы