Ссылка на приватное зеркало нашего сайта всего за 1$. Внимание количество ограничено!!!

2 сезон

iTunes

1 сезон

1

iTunes

iTunes

iTunes

1 сезон

RePack

30

ИГРА 18+

pack

ВАЖНО

!!Акция!!

Alien_RageХит недели

RePack

MK11
pack

Забери бонус

RePack

jed

!!Акция!!

Alien_Rage

RePack

fifa19

RePack

Assassins Creed: Odyssey

RePack

NEED FOR SPEED™ PAYBACK

4 сезон

9 сезон

Бесстыжие 9 сезон

Все сериалы

все сериалы на PB.wtf

RePack

FAR CRY 5
  

Иван Царевич и Серый Волк 3 (Дарина Шмидт) [2015, Россия, мультфильм, приключения, семейный, WEB-DLRip) Оригинал [Лицензия / iTunes] pb.wtf

Иван Царевич и Серый Волк 3 через торрент pb.wtf

Размер: 1.37 GB | Добавлен: 4 года 8 мес. назад | Торрент скачан:1702 раза
Скачать  

03-02-2016 00:45 Иван Царевич и Серый Волк 3 Скачать торрент  

Иван Царевич и Серый Волк 3


  • Год выпуска: 2015
  • Страна: Россия
  • Жанр: мультфильм, приключения, семейный
  • Продолжительность: 01:16:55
  • Перевод: Оригинал [Лицензия / iTunes]
  • Режиссер: Дарина Шмидт
  • В ролях:

    Никита Ефремов (Иван Царевич, озвучка), Иван Охлобыстин (Царь, озвучка), Михаил Боярский (Кот, озвучка), Артур Смольянинов (Серый волк, озвучка), Татьяна Бунина (Василиса, озвучка), Михаил Хрусталев (Пугало Пал Палыч, озвучка), Дмитрий Высоцкий (Тонкий, озвучка), Олег Куликович (Толстый, озвучка), Анатолий Петров (Соловей, озвучка), Роман Никитин (Кеша, озвучка), Константин Бронзит (Щука, озвучка)


  • Царь Тридевятого царства, в честь своего 150-летия решил, что с него хватит - пора на заслуженный отдых. «Я устал. Я ухожу», - заявил самодержец и с удочкой и ведёрком удалился в деревенскую глушь. А оберегать государство остались Иван с Серым Волком. Вот только Василиса, жена Ивана, заявила, что свадебного путешествия у неё не было, заграницу она не видела, «постить» в инстаграм решительно нечего и вообще.
    Иван спорить не стал, а вместе с Василисой, Котом - ученым и Серым Волком, погрузился на ковер-самолет и отправился в путь. А за главного в стране герои оставили самое обычное огородное пугало... Но пока компания шаталась по Миланам и Парижам, Пугало ожило и начало наводить свои порядки в Тридевятом царстве...
  • Рейтинг:



  • Качество: WEB-DLRip
  • Формат: :AVI
  • Видео кодек: XviD
  • Аудио кодек: AC3
  • Видео: 720x400 (16:9), 2147 kbps, 24 fps, 0,311 bpp
  • Аудио: 5.1 / 48 kHz / 384 kbps / 16 bit
  • Релиз от: GEKADOL

    Код:

    General
    Complete name                            : G:\CeP1i.B0Lk.3.2015.D.WEB-DLRip.avi
    Format                                   : AVI
    Format/Info                              : Audio Video Interleave
    File size                                : 1.37 GiB
    Duration                                 : 1h 16mn
    Overall bit rate                         : 2 541 Kbps
    Writing application                      : VirtualDubMod 1.5.10.3 | www.virtualdub-fr.org || (build 2550/release)
    Writing library                          : VirtualDubMod build 2550/release

    Video
    ID                                       : 0
    Format                                   : MPEG-4 Visual
    Format profile                           : Advanced Simple@L5
    Format settings, BVOP                    : 2
    Format settings, QPel                    : No
    Format settings, GMC                     : No warppoints
    Format settings, Matrix                  : Default (MPEG)
    Codec ID                                 : XVID
    Codec ID/Hint                            : XviD
    Duration                                 : 1h 16mn
    Bit rate                                 : 2 148 Kbps
    Width                                    : 720 pixels
    Height                                   : 400 pixels
    Display aspect ratio                     : 16:9
    Frame rate                               : 24.000 fps
    Color space                              : YUV
    Chroma subsampling                       : 4:2:0
    Bit depth                                : 8 bits
    Scan type                                : Progressive
    Compression mode                         : Lossy
    Bits/(Pixel*Frame)                       : 0.311
    Stream size                              : 1.15 GiB (85%)
    Writing library                          : XviD 1.2.1 (UTC 2008-12-04)

    Audio
    ID                                       : 1
    Format                                   : AC-3
    Format/Info                              : Audio Coding 3
    Mode extension                           : CM (complete main)
    Codec ID                                 : 2000
    Duration                                 : 1h 16mn
    Bit rate mode                            : Constant
    Bit rate                                 : 384 Kbps
    Channel(s)                               : 6 channels
    Channel positions                        : Front: L C R, Side: L R, LFE
    Sampling rate                            : 48.0 KHz
    Bit depth                                : 16 bits
    Compression mode                         : Lossy
    Stream size                              : 211 MiB (15%)
    Alignment                                : Split accross interleaves
    Interleave, duration                     : 42 ms (1.00 video frame)
    Interleave, preload duration             : 500 ms




    Скриншоты:



    pb.wtf



  • Скачать Иван Царевич и Серый Волк 3 через торрент http://i75.fastpic.ru/big/2016/0203/2c/688f40f354cf53ad03da23560459cb2c.jpg Скачать фильм Иван Царевич и Серый Волк 3 через торрент бесплантно в хорошем качестве qw.png Царь Тридевятого царства, в честь своего 150-летия решил, что с него хватит - пора на заслуженный отдых. «Я устал. Я ухожу», - ... 9.5 10 36
    Info! Золотая раздача, скачанное не засчитывается.
    Торрент: Зарегистрирован [2016-02-03 00:45] · скачан: 1 702 раз
    Статус: √ проверено
    Размер: 1.37 GB
    Как cкачать? Как скачать Иван Царевич и Серый Волк 3 через торрент | qTorrent

    % Раздел Тема Автор DL S | L
    Наши Мультфильмы (HD, WEB-DL 720p, 1080p) [ 3.01 GB ] Иван Царевич и Серый Волк 3 [2015 Россия мультфильм WEB-DL 1080p) Оригинал GEKADOL Скачать
    1 | 0
    R.G.Resident - Мультфильмы, Видео [ 1.46 GB ] Иван Царевич и Серый Волк 3 [2015 мультфильм BDRip-AVC Оригинальный [] R.G.Resident schultz Скачать
    1 | 0
    Наши мультфильмы [ 1.45 GB ] Иван Царевич и Серый Волк 3 [2015 Россия мультфильм WEB-DLRip) Оригинал Twi7ter Скачать
    1 | 0
    Наши Мультфильмы (HD, WEB-DL 720p, 1080p) [ 2.28 GB ] Иван Царевич и Серый Волк 3 [2015 Россия мультфильм WEB-DL 720p) Оригинал GEKADOL Скачать
    1 | 0

    28-11-2019 20:33  

    Отключить всю рекламу на сайте

      Дорогой пользователь! Огромная просьба, поблагодарите релизера, оцените раздачу и оставьте свои комментарий, если Вы скачали Иван Царевич и Серый Волк 3 через торрент бесплатно! Внесите свою лепту в развитие PiratBit!
      Комментировать посты могут только пользователи прошедшие не сложную регистрацию
      Показать сообщения:    

      Иван Царевич и Серый Волк 3 через торрент
      Скачать бесплатно Иван Царевич и Серый Волк 3
      Иван Царевич и Серый Волк 3 скачать торрент
      Иван Царевич и Серый Волк 3 смотреть онлайн
      Cкачать фильм Иван Царевич и Серый Волк 3 бесплатно
      Иван Царевич и Серый Волк 3 скачать торрент в хорошем качестве
      Иван Царевич и Серый Волк 3 смотреть онлайн бесплатно в хорошем качестве


      Вы не можете начинать темы
      Вы не можете отвечать на сообщения
      Вы не можете редактировать свои сообщения
      Вы не можете удалять свои сообщения
      Вы не можете голосовать в опросах
      Вы не можете прикреплять файлы к сообщениям
      Вы можете скачивать файлы