Ссылка на приватное зеркало нашего сайта всего за 1$. Внимание количество ограничено!!!

2 сезон

iTunes

1 сезон

1

iTunes

iTunes

iTunes

1 сезон

RePack

30

ИГРА 18+

pack

ВАЖНО

!!Акция!!

Alien_RageХит недели

RePack

MK11
pack

Забери бонус

RePack

jed

!!Акция!!

Alien_Rage

RePack

fifa19

RePack

Assassins Creed: Odyssey

RePack

NEED FOR SPEED™ PAYBACK

4 сезон

9 сезон

Бесстыжие 9 сезон

Все сериалы

все сериалы на PB.wtf

RePack

FAR CRY 5
  

Пэн: Путешествие в Нетландию / Pan (Джо Райт) [2015 г., Фэнтези, комедия, приключения, BD Remux, Дубляж Лицензия] pb.wtf

Пэн: Путешествие в Нетландию через торрент pb.wtf

Размер: 23.81 GB | Добавлен: 4 года 8 мес. назад | Торрент скачан:18 раз
Скачать  

03-02-2016 08:59 Пэн: Путешествие в Нетландию Скачать торрент  

Пэн: Путешествие в Нетландию / Pan
Год выпуска: 2015
Страна: США, Великобритания, Австралия
Жанр: Фэнтези, комедия, приключения
Продолжительность: 01:51:55
Перевод: Дубляж Лицензия+ Украинский+ Оригинал+ Коментарии
Субтитры: Русские, английские

Режиссер: Джо Райт

В ролях: Хью Джекман, Леви Миллер, Гаррет Хедлунд, Руни Мара, Адиль Ахтар, Нонсо Анози, Аманда Сайфред, Кэти Бёрк, Льюис МакДугалл, Кара Делевинь, Тхэ-чжу На, Джек Чарльз, Бронсон Уэбб, Майк Шеперд, Брайан Бовелл, Курт Эгиаван, Джимми Ви, Пол Хантер, Спенсер Уидлинг, Дин Нолан

Описание: Питер Пэн — безграмотный лондонский сирота, в поисках матери и собственного предназначения оказавшийся в Нетландии. Здесь ему предстоит стать не кем иным, как лидером восстания местных жителей против злых пиратов, которое возглавляет капитан Черная борода. А вот вечный враг Пэна, Джеймс Крюк, окажется его союзником и вообще обаятельным, мужественным парнем с отменным чувством юмора и обеими конечностями. Заручившись поддержкой Тигровой Лилии, принцессы индейского племени, Питер и Крюк поведут недовольных обитателей волшебной страны в бой против коварных узурпаторов…

Качество: BD Remux
Формат: MKV
Видео кодек: AVC
Аудио кодек: AC3-TrueHD
Видео: MPEG-4 AVC, (1920x1080),23932 Кбит/с, 23.976 кадра/сек
Аудио#1: AC3, 6 ch,640 kbps (Rus) 48.0 KHz Дублированный (Лицензия)
Аудио#2: AC3, 2 ch,192 kbps (Ukr) 48.0 KHz Украинский
Аудио#3: TrueHD, 8 ch,5667 kbps (Eng) 48.0 KHz Оригинал
Аудио#4: AC3, 2 ch,64 kbps (Eng) 48.0 KHz Коментарии
скриншот   скриншот   скриншот  

Тип потока: Видео
Длительность: 01:51:32
Кодек: AVC
Кодек/описание: Advanced Video Codec
Кодек/профиль: High@L4.1
Кодек/ID: V_MPEG4/ISO/AVC
Кодек/CABAC: Yes
Кодек/ReFrames: 2 frames
Размеры изображения: 1920 x 1080 (16:9)
Частота кадров: 23.976 fps
Частота кадров/тип: Constant
Битрейт/тип: VBR
Цветовое пространство: YUV
Тип развёртки: Progressive
Колориметрия: 4:2:0
Глубина: 8 bits
:
Тип потока: Звук #1
Язык: Russian
Длительность: 01:51:32.160
Кодек: AC-3
Кодек/описание: Audio Coding 3
Кодек/ID: A_AC3
Частота дискретизации: 48.0 KHz
Каналов: 6 channels
Битрейт: 640 Kbps
Битрейт/тип: Constant
Размер потока: 511 MiB (2%)
Глубина: 16 bits
Метод сжатия: Lossy
:
Тип потока: Звук #2
Язык: Ukrainian
Название: iTunes
Длительность: 01:51:32.160
Кодек: AC-3
Кодек/описание: Audio Coding 3
Кодек/профиль: Dolby Digital
Кодек/ID: A_AC3
Частота дискретизации: 48.0 KHz
Каналов: 2 channels
Битрейт: 192 Kbps
Битрейт/тип: Constant
Размер потока: 153 MiB (1%)
Глубина: 16 bits
Метод сжатия: Lossy
:
Тип потока: Звук #3
Язык: English
Длительность: 01:51:32.160
Кодек: TrueHD
Кодек/ID: A_TRUEHD
Частота дискретизации: 48.0 KHz
Каналов: 8 channels
Битрейт/тип: Variable
Метод сжатия: Lossless
:
Тип потока: Звук #4
Язык: English
Название: Commentary with Director Joe Wright
Длительность: 01:51:32.160
Кодек: AC-3
Кодек/описание: Audio Coding 3
Кодек/ID: A_AC3
Частота дискретизации: 48.0 KHz
Каналов: 2 channels
Битрейт: 64.0 Kbps
Битрейт/тип: Constant
Размер потока: 51.1 MiB (0%)
Глубина: 16 bits
Метод сжатия: Lossy
:
Тип потока: Субтитры #1
Язык: Russian
Формат: UTF-8
Формат/подробно: UTF-8 Plain Text
Название: Forced
:
Тип потока: Субтитры #2
Язык: Russian
Формат: UTF-8
Формат/подробно: UTF-8 Plain Text
Название: Full
:
Тип потока: Субтитры #3
Язык: Ukrainian
Формат: UTF-8
Формат/подробно: UTF-8 Plain Text
Название: Forced
:
Тип потока: Субтитры #4
Язык: English
Формат: UTF-8
Формат/подробно: UTF-8 Plain Text
:
Тип потока: Субтитры #5
Язык: English
Формат: UTF-8
Формат/подробно: UTF-8 Plain Text
Название: SDH

pb.wtf



Скачать Пэн: Путешествие в Нетландию через торрент http://pic1.kartinco.top/images/10/3dqhs.jpg Скачать фильм Пэн: Путешествие в Нетландию через торрент бесплантно в хорошем качестве Описание: Питер Пэн — безграмотный лондонский сирота, в поисках матери и собственного предназначения оказавшийся в Нетландии. Здесь ему ... 7 10 3
Info! Золотая раздача, скачанное не засчитывается.
Торрент: Зарегистрирован [2016-02-03 08:59] · скачан: 18 раз
Статус: √ проверено
Размер: 23.81 GB
Как cкачать? Как скачать Пэн: Путешествие в Нетландию через торрент | qTorrent

% Раздел Тема Автор DL S | L
Ultra HD (UHD: 2K, 4K, 8K) — видео сверхвысокой чёткости [ 48.38 GB ] Пэн: Путешествие в Нетландию / Pan [2015 UHD BDRemux 2160p] - [] sheker187 Скачать
1 | 0
3D Фильмы [ 37.39 GB ] Пэн: Путешествие в Нетландию 3D / Pan 3D [2015 Blu-ray disc 1080p] DUB BD CEE voovaz Скачать
1 | 0
Фильмы 2015 [DVDrip, WEB-DLRip, HDrip] [ 2.19 GB ] Пэн: Путешествие в Нетландию / Pan [2015 HDRip "BD CEE"] coc900 Скачать
1 | 0
Фильмы (HD 720p, 1080p) (48-60 fps) [ 5.19 GB ] Пэн: Путешествие в Нетландию / Pan [2015 BDRip 720p 60fps от еnvy / NNNB] DUB еnvy Скачать
1 | 0
Фильмы 2015 [DVDrip, WEB-DLRip, HDrip] [ 1.46 GB ] Пэн: Путешествие в Нетландию / Pan [2015 BDRip] DUB Twi7ter Скачать
2 | 0
3D Фильмы [ 15.03 GB ] Пэн: Путешествие в Нетландию / Pan [2015 BDrip 1080p] DUB OverUnder / Вертикальная стереопара serega768 Скачать
1 | 0
Фильмы (Blu-ray, BD-Remux, HDDVD) [ 34.96 GB ] Пэн: Путешествие в Нетландию / Pan [2015 Blu-Ray] от BlueBird / лицензия Russian Mafia Скачать
1 | 0

28-11-2019 20:33  

Отключить всю рекламу на сайте

    Дорогой пользователь! Огромная просьба, поблагодарите релизера, оцените раздачу и оставьте свои комментарий, если Вы скачали Пэн: Путешествие в Нетландию через торрент бесплатно! Внесите свою лепту в развитие PiratBit!
    Комментировать посты могут только пользователи прошедшие не сложную регистрацию
    Показать сообщения:    

    Пэн: Путешествие в Нетландию через торрент
    Скачать бесплатно Пэн: Путешествие в Нетландию
    Пэн: Путешествие в Нетландию скачать торрент
    Пэн: Путешествие в Нетландию смотреть онлайн
    Cкачать фильм Пэн: Путешествие в Нетландию бесплатно
    Пэн: Путешествие в Нетландию скачать торрент в хорошем качестве
    Пэн: Путешествие в Нетландию смотреть онлайн бесплатно в хорошем качестве


    Вы не можете начинать темы
    Вы не можете отвечать на сообщения
    Вы не можете редактировать свои сообщения
    Вы не можете удалять свои сообщения
    Вы не можете голосовать в опросах
    Вы не можете прикреплять файлы к сообщениям
    Вы можете скачивать файлы