Ссылка на приватное зеркало нашего сайта всего за 1$. Внимание количество ограничено!!!

2 сезон

iTunes

1 сезон

1

iTunes

iTunes

iTunes

1 сезон

RePack

30

ИГРА 18+

pack

ВАЖНО

!!Акция!!

Alien_RageХит недели

RePack

MK11
pack

Забери бонус

RePack

jed

!!Акция!!

Alien_Rage

RePack

fifa19

RePack

Assassins Creed: Odyssey

RePack

NEED FOR SPEED™ PAYBACK

4 сезон

9 сезон

Бесстыжие 9 сезон

Все сериалы

все сериалы на PB.wtf

RePack

FAR CRY 5
  

Этот неловкий момент / Un moment d'égarement (Жан-Франсуа Рише ) [2015, мелодрама, комедия, BDRip 720p от _denis_100 / NNNB] Дублированный - [НТВ+] pb.wtf

Этот неловкий момент через торрент pb.wtf

Размер: 5.54 GB | Добавлен: 4 года 8 мес. назад | Торрент скачан:520 раз
Скачать  

03-02-2016 14:13 Этот неловкий момент Скачать торрент  

Этот неловкий момент / Un moment d'égarement


Год выпуска: 2015
Страна: Франция, Бельгия
Жанр: мелодрама, комедия
Продолжительность: 01:45:28
Перевод: Дублированный - [НТВ+]

Режиссер: Жан-Франсуа Рише
В ролях: Венсан Кассель , Франсуа Клюзе , Лола Ле Ланн , Алис Исааз , Лука Мельява , Noémie Merlant , Ромейн Апельбаум , Филипп Наон , François Bergoin , Аннелиз Эм , Samuel Torres Bianconi , Пьер-Мари Москони
Описание:
Два закадычных друга со своими дочерьми проводят отпуск на Ривьере, где на солнечных пляжах в 42-летнего отца семейства влюбляется соблазнительная 18-летняя красотка. Все бы ничего, да только прелестная девушка является дочерью лучшего друга - строгого отца, грозящего пристрелить любого, кто подойдет ближе, чем на шаг, к обожаемой малышке.

Качество: BDRip 720p
Контейнер (Расширение): MKV
Видео: 1280x692, 6500 Кбит/сек, 24 кадр/сек, 0,306 Бит/[Пиксели*Кадры]
Аудио №1: русский / AC3 / 5.1 / 48 kHz / 384 kbps / 16 bit |Дублированный - [НТВ+]|
Аудио №2: французский / AC3 / 5.1 / 48 kHz / 640 kbps / 16 bit
Навигация по главам(Чаптеры): естьАвтор рипа: Сообщество:

Код:

Format                                   : Matroska
Format version                           : Version 2
File size                                : 5.54 GiB
Duration                                 : 1h 45mn
Overall bit rate                         : 7 522 Kbps
Movie name                               : Un moment d'egarement.(2015).BDRip.720p.[denis100]
Encoded date                             : UTC 2016-02-03 09:07:07
Writing application                      : mkvmerge v5.8.0 ('No Sleep / Pillow') built on Sep  2 2012 15:37:04
Writing library                          : libebml v1.2.3 + libmatroska v1.3.0

Video
ID                                       : 1
Format                                   : AVC
Format/Info                              : Advanced Video Codec
Format profile                           : High@L4.1
Format settings, CABAC                   : Yes
Format settings, ReFrames                : 9 frames
Codec ID                                 : V_MPEG4/ISO/AVC
Duration                                 : 1h 45mn
Bit rate                                 : 6 500 Kbps
Width                                    : 1 280 pixels
Height                                   : 692 pixels
Display aspect ratio                     : 1.850
Frame rate                               : 24.000 fps
Color space                              : YUV
Chroma subsampling                       : 4:2:0
Bit depth                                : 8 bits
Scan type                                : Progressive
Bits/(Pixel*Frame)                       : 0.306
Stream size                              : 4.68 GiB (84%)
Title                                    : Un moment d'egarement.(2015).BDRip.720p.[denis100]
Writing library                          : x264 core 148 r2638 7599210
Encoding settings                        : cabac=1 / ref=9 / deblock=1:-3:-3 / analyse=0x3:0x133 / me=umh / subme=11 / psy=1 / psy_rd=1.00:0.15 / mixed_ref=1 / me_range=48 / chroma_me=1 / trellis=2 / 8x8dct=1 / cqm=0 / deadzone=21,11 / fast_pskip=0 / chroma_qp_offset=-3 / threads=6 / lookahead_threads=1 / sliced_threads=0 / nr=0 / decimate=1 / interlaced=0 / bluray_compat=0 / constrained_intra=0 / bframes=9 / b_pyramid=2 / b_adapt=2 / b_bias=0 / direct=3 / weightb=1 / open_gop=0 / weightp=2 / keyint=250 / keyint_min=24 / scenecut=40 / intra_refresh=0 / rc=2pass / mbtree=0 / bitrate=6500 / ratetol=1.0 / qcomp=0.60 / qpmin=0 / qpmax=69 / qpstep=4 / cplxblur=20.0 / qblur=0.5 / ip_ratio=1.40 / pb_ratio=1.30 / aq=1:0.90
Language                                 : English
Default                                  : Yes
Forced                                   : No

Audio #1
ID                                       : 2
Format                                   : AC-3
Format/Info                              : Audio Coding 3
Mode extension                           : CM (complete main)
Codec ID                                 : A_AC3
Duration                                 : 1h 45mn
Bit rate mode                            : Constant
Bit rate                                 : 384 Kbps
Channel(s)                               : 6 channels
Channel positions                        : Front: L C R, Side: L R, LFE
Sampling rate                            : 48.0 KHz
Bit depth                                : 16 bits
Compression mode                         : Lossy
Stream size                              : 290 MiB (5%)
Title                                    : Дублированное [HTB+]
Language                                 : Russian
Default                                  : Yes
Forced                                   : No

Audio #2
ID                                       : 3
Format                                   : AC-3
Format/Info                              : Audio Coding 3
Mode extension                           : CM (complete main)
Codec ID                                 : A_AC3
Duration                                 : 1h 45mn
Bit rate mode                            : Constant
Bit rate                                 : 640 Kbps
Channel(s)                               : 6 channels
Channel positions                        : Front: L C R, Side: L R, LFE
Sampling rate                            : 48.0 KHz
Bit depth                                : 16 bits
Compression mode                         : Lossy
Stream size                              : 483 MiB (9%)
Language                                 : French
Default                                  : No
Forced                                   : No

Menu
00:00:00.000                             : fr:Chapter 1
00:10:28.500                             : fr:Chapter 2
00:21:09.583                             : fr:Chapter 3
00:32:47.541                             : fr:Chapter 4
00:43:19.833                             : fr:Chapter 5
00:50:58.791                             : fr:Chapter 6
01:02:14.291                             : fr:Chapter 7
01:12:41.208                             : fr:Chapter 8
01:22:54.541                             : fr:Chapter 9
01:30:28.041                             : fr:Chapter 10
01:36:04.375                             : fr:Chapter 11
01:40:56.083                             : fr:Chapter 12

x264 [info]: frame I:1279 Avg QP:14.83 size:165469
x264 [info]: frame P:35303 Avg QP:16.87 size: 62659
x264 [info]: frame B:115309 Avg QP:19.12 size: 23547
x264 [info]: consecutive B-frames: 2.4% 5.3% 8.3% 21.7% 20.4% 34.8% 5.2% 1.0% 0.5% 0.4%
pb.wtf



Скачать Этот неловкий момент через торрент http://i67.fastpic.ru/big/2016/0203/b7/5d10aa16e86d38a409dd0bc9928a9db7.png Скачать фильм Этот неловкий момент через торрент бесплантно в хорошем качестве Описание:Два закадычных друга со своими дочерьми проводят отпуск на Ривьере, где на солнечных пляжах в 42-летнего отца семейства влюбляется ... 9 10 12
Info! Золотая раздача, скачанное не засчитывается.
Торрент: Зарегистрирован [2016-02-03 14:13] · скачан: 520 раз
Статус: √ проверено
Размер: 5.54 GB
Как cкачать? Как скачать Этот неловкий момент через торрент | qTorrent

28-11-2019 20:33  

Отключить всю рекламу на сайте

03-02-2016 16:17 Этот неловкий момент Скачать торрент  

Это случайно не ремейк "Во всем виноват Рио"?pb.wtf



03-02-2016 16:56 Этот неловкий момент Скачать торрент  

Шуруп писал(а):

Это случайно не ремейк "Во всем виноват Рио"?

он самый)pb.wtf



    Дорогой пользователь! Огромная просьба, поблагодарите релизера, оцените раздачу и оставьте свои комментарий, если Вы скачали Этот неловкий момент через торрент бесплатно! Внесите свою лепту в развитие PiratBit!
    Комментировать посты могут только пользователи прошедшие не сложную регистрацию
    Показать сообщения:    

    Этот неловкий момент через торрент
    Скачать бесплатно Этот неловкий момент
    Этот неловкий момент скачать торрент
    Этот неловкий момент смотреть онлайн
    Cкачать фильм Этот неловкий момент бесплатно
    Этот неловкий момент скачать торрент в хорошем качестве
    Этот неловкий момент смотреть онлайн бесплатно в хорошем качестве


    Вы не можете начинать темы
    Вы не можете отвечать на сообщения
    Вы не можете редактировать свои сообщения
    Вы не можете удалять свои сообщения
    Вы не можете голосовать в опросах
    Вы не можете прикреплять файлы к сообщениям
    Вы можете скачивать файлы