Всегда рабочее зеркало просто перед .vidak.icu напиши любое слово или цифру, Пример http://3nj.vidak.icu

>

7.4

iTunes

7.4

2 сезон

9.4

1 сезон

1

7.4

2 сезон

7.2

iTunes

6.0

MVO

13

6.1

iTunes

8.3

Пиратка

30

ULTIMATE

pack

9.9

Лицензия

ВАЖНО

ИГРА 18+

pack

7.3

RePack

MK11

7.7

RePack

jed

7.8

RePack

fifa19

8.5

RePack

RDR2

RePack

NEED FOR SPEED™ PAYBACK

1 сезон

9 сезон

Бесстыжие 9 сезон

Все сериалы

все сериалы на PB.wtf

RePack

FAR CRY 5

Anonymous, доброй ночи, мы катастрофически не успеваем собрать деньги на оплату серверов, помогите нам пожалуйста 5,10,15р., для нас важна любая помощь . В качестве благодарности мы отключим Вам всю рекламу на сайте (укажите свой ник в строку Ваше имя)!

×
  
Magnet ссылка

Турбо пацан / Turbo Kid (Франсуа Симар, Anouk Whissell, Yoann-Karl Whissell) [2015, фантастика, боевик, приключения, BDRip-AVC от potroks] AVO [Дмитрий Есарев] pb.wtf

Турбо пацан через торрент pb.wtf

Размер: 1.46 GB | Добавлен: 5 лет 11 мес. назад | Торрент скачан:94 раза
Смотреть онлайн Турбо пацан | Скачать    Ребята, помогите собрать деньги на оплату серверов!!!

04-02-2016 14:36 Турбо пацан Скачать торрент  

Турбо пацан / Turbo Kid
«Coming Soon To a Wasteland Near You!»
Год выпуска: 2015
Страна: Канада, США, Новая Зеландия / EMA Films, Epic Pictures Group, Timpson Films
Жанр: фантастика, боевик, приключения
Продолжительность: 01:32:53
Перевод: Авторский (одноголосый) [Д.Есарев]
Субтитры: английские (Full + SDH + SDH-Colored)
Навигация по главам: есть
Режиссер: Франсуа Симар / François Simard, Anouk Whissell, Yoann-Karl Whissell
В ролях:

Манро Чэмберс (The Kid), Лоранс Лебёф (Apple), Майкл Айронсайд (Zeus), Эдвин Райт (Skeletron), Аарон Джеффри (Frederic), Романо Орцари (Bagu), Orphée Ladouceur (Female Guard), Steeve Léonard (Scout), Ив Корбелл (Turbo Général), Ивэн Манукян (Young the kid), Anouk Whissell (The Mother), Франсуа Симар (The Father)
Описание: Примерив костюм своего любимого героя комиксов, парнишка должен спасти новую странноватую подружку и положить конец правлению безумного тирана на просторах пост-апокалиптической пустоши.

Качество: BDRip-AVC
Формат: MKV
Видео кодек: AVC
Аудио кодек: AC3
Видео: AVC, 960x404 (2.40:1), 1803 kbps, 23,976 fps, 0,194 bit/pixel
Аудио: AC3 / 5.1 / 48 kHz / 448 kbps / 16 bit

Релиз группы:
Автор рипа: potroks

Код:

Общее
Уникальный идентификатор : 192297986277395375172577364797678405616 (0x90AB3EB86E719DCEA982BB29FDFFC7F0)
Полное имя : Turbo.Patcan.2015.RUS.BDRip.x264.-HELLYWOOD.mkv
Формат : Matroska
Версия формата : Version 4 / Version 2
Размер файла : 1,46 Гбайт
Продолжительность : 1 ч. 32 м.
Общий поток : 2247 Кбит/сек
Название фильма : Turbo Kid (2015) - HELLYWOOD
Дата кодирования : UTC 2016-02-04 14:13:30
Программа кодирования : mkvmerge v5.9.0 ('On The Loose') built on Dec 15 2012 16:39:58
Библиотека кодирования : libebml v1.3.0 + libmatroska v1.4.0

Видео
Идентификатор : 1
Формат : AVC
Формат/Информация : Advanced Video Codec
Профиль формата : High@L4.1
Параметр CABAC формата : Да
Параметр ReFrames формата : 12 кадров
Идентификатор кодека : V_MPEG4/ISO/AVC
Продолжительность : 1 ч. 32 м.
Битрейт : 1803 Кбит/сек
Ширина : 960 пикселей
Высота : 404 пикселя
Соотношение сторон : 2,40:1
Режим частоты кадров : Постоянный
Частота кадров : 23,976 кадра/сек
Цветовое пространство : YUV
Субдискретизация насыщенности : 4:2:0
Битовая глубина : 8 бит
Тип развёртки : Прогрессивная
Бит/(Пиксели*Кадры) : 0.194
Размер потока : 1,14 Гбайт (78%)
Заголовок : potroks
Библиотека кодирования : x264 core 146 r2538 121396c
Настройки программы : cabac=1 / ref=12 / deblock=1:-2:-2 / analyse=0x3:0x113 / me=umh / subme=11 / psy=1 / psy_rd=1.00:0.05 / mixed_ref=1 / me_range=48 / chroma_me=1 / trellis=2 / 8x8dct=1 / cqm=0 / deadzone=21,11 / fast_pskip=0 / chroma_qp_offset=-3 / threads=9 / lookahead_threads=2 / sliced_threads=0 / nr=0 / decimate=0 / interlaced=0 / bluray_compat=0 / constrained_intra=0 / bframes=13 / b_pyramid=2 / b_adapt=2 / b_bias=0 / direct=3 / weightb=1 / open_gop=0 / weightp=2 / keyint=240 / keyint_min=23 / scenecut=40 / intra_refresh=0 / rc_lookahead=60 / rc=2pass / mbtree=0 / bitrate=1803 / ratetol=1.0 / qcomp=0.70 / qpmin=0 / qpmax=69 / qpstep=4 / cplxblur=20.0 / qblur=0.5 / vbv_maxrate=14000 / vbv_bufsize=14000 / nal_hrd=none / filler=0 / ip_ratio=1.40 / pb_ratio=1.30 / aq=1:0.80
Язык : English
Default : Да
Forced : Нет

Аудио
Идентификатор : 2
Формат : AC-3
Формат/Информация : Audio Coding 3
Расширение режима : CM (complete main)
Параметр Endianness формата : Big
Идентификатор кодека : A_AC3
Продолжительность : 1 ч. 32 м.
Вид битрейта : Постоянный
Битрейт : 448 Кбит/сек
Каналы : 6 каналов
Расположение каналов : Front: L C R, Side: L R, LFE
Частота : 48,0 КГц
Метод сжатия : С потерями
Размер потока : 298 Мбайт (20%)
Заголовок : AVO | DD 5.1 @ 448 kbps - D.Yesarev
Язык : Russian
Default : Да
Forced : Нет

Текст #1
Идентификатор : 3
Формат : UTF-8
Идентификатор кодека : S_TEXT/UTF8
Идентификатор кодека/Информация : UTF-8 Plain Text
Заголовок : Full
Язык : English
Default : Нет
Forced : Нет

Текст #2
Идентификатор : 4
Формат : UTF-8
Идентификатор кодека : S_TEXT/UTF8
Идентификатор кодека/Информация : UTF-8 Plain Text
Заголовок : SDH
Язык : English
Default : Нет
Forced : Нет

Текст #3
Идентификатор : 5
Формат : UTF-8
Идентификатор кодека : S_TEXT/UTF8
Идентификатор кодека/Информация : UTF-8 Plain Text
Заголовок : SDH-Colored
Язык : English
Default : Нет
Forced : Нет

Меню
00:00:00.000 : en:
00:06:45.321 : en:
00:15:51.742 : en:
00:23:48.260 : en:
00:31:56.247 : en:
00:42:37.554 : en:
00:46:54.770 : en:
00:55:19.274 : en:
01:05:08.070 : en:
01:17:25.265 : en:
01:21:10.240 : en:
01:28:09.951 : en:

pb.wtf



Скачать Турбо пацан через торрент http://i74.fastpic.ru/big/2016/0204/bf/a8a4250c89c03328d76c79965495bbbf.png Скачать, смотреть онлайн Турбо пацан бесплантно в хорошем качестве Описание: Примерив костюм своего любимого героя комиксов, парнишка должен спасти новую странноватую подружку и положить конец правлению ... 10 10 1
Info! Золотая раздача, скачанное не засчитывается.
Торрент: Зарегистрирован [2016-02-04 14:36] · скачан: 94 раз
Статус: √ проверено
Размер: 1.46 GB
Как cкачать? Как скачать Турбо пацан через торрент | UTorrent

% Раздел Тема Автор DL S | L
Фильмы (HD 720p, 1080p) (48-60 fps) [ 8.1 GB ] Турбо пацан / Turbo Kid [2015 BDRip 720p by mimok AVO] 48fps mimok Скачать
1 | 0
Фильмы (Blu-ray, BD-Remux, HDDVD) [ 30.82 GB ] Турбо пацан / Turbo Kid [2015 Blu-Ray 1080p] SPA Transfer / AVO Russian Mafia Скачать
1 | 0
Фильмы [HD 720p, 1080p] (Хороший звук DUB, MVO) [ 4.37 GB ] Турбо пацан / Turbo Kid [2015 BDRip 720p] AVO [Дмитрий Есарев] potroks Скачать
1 | 0
Фильмы с авторской озвучкой [ 1.46 GB ] Турбо пацан / Turbo Kid [2015 BDRip] AVO [Дмитрий Есарев] Twi7ter Скачать
1 | 0
Фильмы с авторской озвучкой [ 2.18 GB ] Турбо пацан / Turbo Kid [2015 BDRip-AVC] AVO [Дмитрий Есарев] potroks Скачать
1 | 0
Фильмы 2015 (Звук TS, Cam, VO, DVO) [ 1.45 GB ] Турбо Пацан / Turbo Kid [2015 WEB-DLRip] Любительский [Мтрск & StacyLagler] diletant Скачать
1 | 0
T Фильмы (WEB-DL 720p, 1080p) [ 2.99 GB ] Турбо пацан / Turbo Kid [2015 WEB-DL 720p Любительский [Мтрск/StacyLagler] Ворон Скачать
1 | 0

28-11-2019 20:33  

Отключить всю рекламу на сайте

    Дорогой пользователь! Огромная просьба, поблагодарите релизера, оцените раздачу и оставьте свои комментарий, если Вы скачали Турбо пацан через торрент бесплатно!
    Комментировать посты могут только пользователи прошедшие не сложную регистрацию
    Показать сообщения:    

    Турбо пацан через торрент
    Скачать бесплатно Турбо пацан
    Турбо пацан скачать торрент
    Турбо пацан смотреть онлайн
    Cкачать фильм Турбо пацан бесплатно
    Турбо пацан скачать торрент в хорошем качестве
    Турбо пацан смотреть онлайн бесплатно в хорошем качестве


    Вы не можете начинать темы
    Вы не можете отвечать на сообщения
    Вы не можете редактировать свои сообщения
    Вы не можете удалять свои сообщения
    Вы не можете голосовать в опросах
    Вы не можете прикреплять файлы к сообщениям
    Вы можете скачивать файлы