Ссылка на приватное зеркало всего за 1$. Внимание количество ограничено!!!

OK

1+1

iTunes

мы

OK

1

WEB-DLRip

Джокер

Пифагор

Ведьмак / The Witcher сериал

Лицензия

ПШазам

ОК

Оно 2

iTunes

30
pack

Вам бонус

ВАЖНО

!!Акция!!

Alien_RageХит недели

RePack

Resident Evil 21

ИГРА 18+

pack

RePack

jed

RePack

fifa19

RePack

Assassins Creed: Odyssey

RePack

NEED FOR SPEED™ PAYBACK

4 сезон

9 сезон

Бесстыжие 9 сезон

Все сериалы

все сериалы на PB.wtf

RePack

FAR CRY 5
  

Шпионский мост / Bridge of Spies (Стивен Спилберг / Steven Spielberg) [2015, США, Германия, Индия, триллер, драма, биография, BDRip-AVC от sokol_ok] DUB Лицензия pb.wtf

Шпионский мост через торрент pb.wtf

Раздают: 1 [ 0 KB/s ]
Размер: 2.91 GB | Добавлен: 3 года 8 мес. назад | Торрент скачан:571 раз
Скачать  

04-02-2016 15:36 Шпионский мост Скачать торрент  

Шпионский мост
Bridge of Spies

«Когда мир на грани войны, лишь честь одного человека может предотвратить катастрофу»


Страна: США, Германия, Индия
Жанр: триллер, драма, биография

Год выпуска: 2015
Продолжительность: 02:21:21

Перевод: Профессиональный (полное дублирование) [Лицензия Blu-ray CEE]
Cубтитры: русские (полные + форс.), украинские (полные + форс.), английские (Full + SDH + SDH-Colored)
Оригинальная аудиодорожка: английский

Режиссер: Стивен Спилберг / Steven Spielberg

В ролях: Том Хэнкс, Марк Райлэнс, Эми Райан, Алан Алда, Остин Стоуэлл, Скотт Шеперд, Джесси Племонс, Доменик Ломбардоззи, Себастьян Кох, Ив Хьюсон, Дэкин Мэтьюз, Майкл Гэстон

Описание:
Действие фильма происходит на фоне серии реальных исторических событий и рассказывает о бруклинском адвокате Джеймсе Доноване, который оказывается в эпицентре холодной войны, когда ЦРУ отправляет его на практически невозможное задание - договориться об освобождении захваченного в СССР американского пилота самолета-разведчика U2. Релиз:

Автор рипа: Stalker oK

Сэмпл

Качество видео: BDRip-AVC [HDCLUB / Blu-ray Remux / 1080p]
Формат видео: MKV
Видео кодек: AVC
Аудио кодек: AC3
Видео: 2051 Кбит/сек, 1080*450 (2,40:1), в 23,976 (24000/1001) кадра/сек, AVC
Аудио #1: Russian, 448 Кбит/сек, 48,0 КГц, 6 каналов, AC-3
Аудио #2: English, 448 Кбит/сек, 48,0 КГц, 6 каналов, AC-3
Навигация по главам: есть

Общее
Уникальный идентификатор : 233547489824608958753067425471139695271 (0xAFB39C43C31E0953983874CDAFFC4AA7)
Полное имя : E:\Bridge.of.Spies.2015.BDRip-AVC.Dub.2.91Gb.stalkerok.new-team.mkv
Формат : Matroska
Версия формата : Version 4 / Version 2
Размер файла : 2,91 Гбайт
Продолжительность : 2 ч. 21 м.
Общий поток : 2949 Кбит/сек
Название фильма : Bridge of Spies (2015) (New-Team) (Rip by Stalker oK)
Дата кодирования : UTC 2016-04-25 18:17:31
Программа кодирования : mkvmerge v8.6.1 ('Flying') 64bit
Библиотека кодирования : libebml v1.3.3 + libmatroska v1.4.4

Видео
Идентификатор : 1
Формат : AVC
Формат/Информация : Advanced Video Codec
Профиль формата : High@L4.1
Параметр CABAC формата : Да
Параметр ReFrames формата : 14 кадров
Идентификатор кодека : V_MPEG4/ISO/AVC
Продолжительность : 2 ч. 21 м.
Битрейт : 2051 Кбит/сек
Ширина : 1080 пикселей
Высота : 450 пикселей
Соотношение сторон : 2,40:1
Режим частоты кадров : Постоянный
Частота кадров : 23,976 (24000/1001) кадра/сек
Цветовое пространство : YUV
Субдискретизация насыщенности : 4:2:0
Битовая глубина : 8 бит
Тип развёртки : Прогрессивная
Бит/(Пиксели*Кадры) : 0.176
Размер потока : 2,02 Гбайт (70%)
Заголовок : Bridge of Spies (2015) (New-Team) (Rip by Stalker oK)
Библиотека кодирования : x264 core 148 r2665kMod a01e339
Настройки программы : cabac=1 / ref=14 / deblock=1:-3:-3 / analyse=0x3:0x133 / me=umh / subme=11 / psy=1 / fade_compensate=0.00 / psy_rd=1.00:0.10 / mixed_ref=1 / me_range=48 / chroma_me=1 / trellis=2 / 8x8dct=1 / cqm=0 / deadzone=21,11 / fast_pskip=0 / chroma_qp_offset=-3 / threads=12 / lookahead_threads=3 / sliced_threads=0 / nr=0 / decimate=0 / interlaced=0 / bluray_compat=0 / constrained_intra=0 / fgo=0 / bframes=15 / b_pyramid=2 / b_adapt=2 / b_bias=0 / direct=3 / weightb=1 / open_gop=0 / weightp=2 / keyint=240 / keyint_min=23 / scenecut=40 / intra_refresh=0 / rc_lookahead=60 / rc=2pass / mbtree=0 / bitrate=2051 / ratetol=1.0 / qcomp=0.70 / qpmin=0 / qpmax=69 / qpstep=4 / cplxblur=20.0 / qblur=0.5 / vbv_maxrate=50000 / vbv_bufsize=62500 / nal_hrd=none / filler=0 / ip_ratio=1.40 / pb_ratio=1.30 / aq=3:0.90
Default : Да
Forced : Нет

Аудио #1
Идентификатор : 2
Формат : AC-3
Формат/Информация : Audio Coding 3
Расширение режима : CM (complete main)
Параметр Endianness формата : Big
Идентификатор кодека : A_AC3
Продолжительность : 2 ч. 21 м.
Вид битрейта : Постоянный
Битрейт : 448 Кбит/сек
Каналы : 6 каналов
Расположение каналов : Front: L C R, Side: L R, LFE
Частота : 48,0 КГц
Частота кадров : 31,250 кадров/сек (1536 spf)
Метод сжатия : С потерями
Размер потока : 453 Мбайт (15%)
Язык : Russian
Default : Да
Forced : Нет

Аудио #2
Идентификатор : 3
Формат : AC-3
Формат/Информация : Audio Coding 3
Расширение режима : CM (complete main)
Параметр Endianness формата : Big
Идентификатор кодека : A_AC3
Продолжительность : 2 ч. 21 м.
Вид битрейта : Постоянный
Битрейт : 448 Кбит/сек
Каналы : 6 каналов
Расположение каналов : Front: L C R, Side: L R, LFE
Частота : 48,0 КГц
Частота кадров : 31,250 кадров/сек (1536 spf)
Метод сжатия : С потерями
Размер потока : 453 Мбайт (15%)
Язык : English
Default : Нет
Forced : Нет

Текст #1
Идентификатор : 4
Формат : UTF-8
Идентификатор кодека : S_TEXT/UTF8
Идентификатор кодека/Информация : UTF-8 Plain Text
Продолжительность : 2 ч. 19 м.
Битрейт : 5 бит/сек
Count of elements : 104
Размер потока : 5,73 Кбайт (0%)
Заголовок : Forced
Язык : Russian
Default : Да
Forced : Нет

Текст #2
Идентификатор : 5
Формат : UTF-8
Идентификатор кодека : S_TEXT/UTF8
Идентификатор кодека/Информация : UTF-8 Plain Text
Продолжительность : 2 ч. 19 м.
Битрейт : 99 бит/сек
Count of elements : 1785
Размер потока : 102 Кбайт (0%)
Заголовок : iTunes
Язык : Russian
Default : Нет
Forced : Нет

Текст #3
Идентификатор : 6
Формат : UTF-8
Идентификатор кодека : S_TEXT/UTF8
Идентификатор кодека/Информация : UTF-8 Plain Text
Продолжительность : 2 ч. 19 м.
Битрейт : 2 бит/сек
Count of elements : 34
Размер потока : 2,14 Кбайт (0%)
Заголовок : Forced
Язык : Ukrainian
Default : Нет
Forced : Нет

Текст #4
Идентификатор : 7
Формат : UTF-8
Идентификатор кодека : S_TEXT/UTF8
Идентификатор кодека/Информация : UTF-8 Plain Text
Продолжительность : 2 ч. 19 м.
Битрейт : 97 бит/сек
Count of elements : 1786
Размер потока : 100 Кбайт (0%)
Заголовок : iTunes
Язык : Ukrainian
Default : Нет
Forced : Нет

Текст #5
Идентификатор : 8
Формат : UTF-8
Идентификатор кодека : S_TEXT/UTF8
Идентификатор кодека/Информация : UTF-8 Plain Text
Продолжительность : 2 ч. 7 м.
Битрейт : 65 бит/сек
Count of elements : 1949
Размер потока : 61,7 Кбайт (0%)
Заголовок : Full
Язык : English
Default : Нет
Forced : Нет

Текст #6
Идентификатор : 9
Формат : UTF-8
Идентификатор кодека : S_TEXT/UTF8
Идентификатор кодека/Информация : UTF-8 Plain Text
Продолжительность : 2 ч. 10 м.
Битрейт : 68 бит/сек
Count of elements : 2106
Размер потока : 65,5 Кбайт (0%)
Заголовок : SDH
Язык : English
Default : Нет
Forced : Нет

Текст #7
Идентификатор : 10
Формат : UTF-8
Идентификатор кодека : S_TEXT/UTF8
Идентификатор кодека/Информация : UTF-8 Plain Text
Продолжительность : 2 ч. 10 м.
Битрейт : 77 бит/сек
Count of elements : 2108
Размер потока : 74,2 Кбайт (0%)
Заголовок : SDH-Colored
Язык : English
Default : Нет
Forced : Нет

Меню
00:00:00.000 : en:Chapter 1
00:10:29.461 : en:Chapter 2
00:17:46.481 : en:Chapter 3
00:22:09.827 : en:Chapter 4
00:25:27.901 : en:Chapter 5
00:31:18.209 : en:Chapter 6
00:37:45.721 : en:Chapter 7
00:45:29.268 : en:Chapter 8
00:52:36.695 : en:Chapter 9
01:00:39.427 : en:Chapter 10
01:07:17.867 : en:Chapter 11
01:16:52.399 : en:Chapter 12
01:33:55.671 : en:Chapter 13
01:45:41.752 : en:Chapter 14
01:56:31.192 : en:Chapter 15
02:07:20.548 : en:Chapter 16
02:14:18.800 : en:Chapter 17
pb.wtf



Скачать Шпионский мост через торрент http://i72.fastpic.ru/big/2015/0531/46/68ef8a2783b58e5344cc30bbd3f1b046.png Скачать фильм Шпионский мост через торрент бесплантно в хорошем качестве Описание:Действие фильма происходит на фоне серии реальных исторических событий и рассказывает о бруклинском адвокате Джеймсе Доноване, ... 8.7 10 13
Info! Золотая раздача, скачанное не засчитывается.
Торрент: Зарегистрирован [2016-05-20 12:22] · скачан: 571 раз
Статус: √ проверено
Размер: 2.91 GB
Как cкачать? Как скачать Шпионский мост через торрент | qTorrent

% Раздел Тема Автор DL S | L
Фильмы [HD 720p, 1080p] (Хороший звук DUB, MVO) [ 7.96 GB ] Шпионский мост / Bridge of Spies [2015 биография BDRip 720p] DUB potroks Скачать
1 | 0
Фильмы 2015 [DVDrip, WEB-DLRip, HDrip] [ 1.46 GB ] Шпионский мост / Bridge of Spies [2015 биография BDRip] DUB Twi7ter Скачать
2 | 0
Фильмы 2015 [DVDrip, WEB-DLRip, HDrip] [ 2.91 GB ] Шпионский мост / Bridge of Spies [2015 биография BDRip-AVC] DUB potroks Скачать
1 | 0
Фильмы 2015 [DVDrip, WEB-DLRip, HDrip] [ 1.45 GB ] Шпионский мост / Bridge of Spies [2015 биография BDRip-AVC] DUB potroks Скачать
1 | 0
Фильмы 2015 [DVDrip, WEB-DLRip, HDrip] [ 1.46 GB ] Шпионский мост / Bridge of Spies [2015 биография BDRip] Dub Twi7ter Скачать
1 | 0


Последний раз редактировалось: sokol_ok (2016-05-20 12:22), всего редактировалось 1 раз

28-11-2019 20:33  

Отключить всю рекламу на сайте

04-02-2016 18:21 Шпионский мост Скачать торрент  

Отличное кино!!! спс!pb.wtf



06-02-2016 10:43 Шпионский мост Скачать торрент  

Спасибо за труд.pb.wtf



13-02-2016 21:43 Шпионский мост Скачать торрент  

Такого редкостного говна давно не видел! Полный шлак!pb.wtf



20-05-2016 12:23 Шпионский мост Скачать торрент  

Торрент файл перезалит. Замена звука iTunes 384 kbps на Blu-ray CEE 448 kbps.pb.wtf



20-05-2016 14:32 Шпионский мост Скачать торрент  

s-e-v-e-n писал(а):

Такого редкостного говна давно не видел! Полный шлак!

С таким словарным запасом можно и рецензию написать...pb.wtf



25-10-2016 13:10 Шпионский мост Скачать торрент  

я пропустил надо наверстать спасибо тем более от моего любимого режиссераpb.wtf



    Дорогой пользователь! Огромная просьба, поблагодарите релизера, оцените раздачу и оставьте свои комментарий, если Вы скачали Шпионский мост через торрент бесплатно! Внесите свою лепту в развитие PiratBit!
    Комментировать посты могут только пользователи прошедшие не сложную регистрацию
    Показать сообщения:    

    Шпионский мост через торрент
    Скачать бесплатно Шпионский мост
    Шпионский мост скачать торрент
    Шпионский мост смотреть онлайн
    Cкачать фильм Шпионский мост бесплатно
    Шпионский мост скачать торрент в хорошем качестве
    Шпионский мост смотреть онлайн бесплатно в хорошем качестве


    Вы не можете начинать темы
    Вы не можете отвечать на сообщения
    Вы не можете редактировать свои сообщения
    Вы не можете удалять свои сообщения
    Вы не можете голосовать в опросах
    Вы не можете прикреплять файлы к сообщениям
    Вы можете скачивать файлы