новый адрес
Ссылка на приватное зеркало всего за 1$. Внимание количество ограничено!!!

iTunes

1+1

iTunes

мы

WEB-DL

1

iTunes

Чернобыль

iTunes

Ральф против интернета

Лицензия

ПШазам

Лицензия

Оно 2

Лицензия

30
pack

Вам бонус

ВАЖНО

!!Акция!!

Alien_RageХит недели

RePack

Resident Evil 21

ИГРА 18+

pack

RePack

jed

!!Акция!!

Alien_Rage

RePack

fifa19

RePack

Assassins Creed: Odyssey

RePack

NEED FOR SPEED™ PAYBACK

3 сезон

9 сезон

Бесстыжие 9 сезон

Все сериалы

все сериалы на PB.wtf

RePack

FAR CRY 5
Ребята, катастрофически не хватает 1900р. для оплаты серверов за Октябрь (всвязи с блокировками трафик упал в 3 раза), 1-2р., выручайте.
  

Первое свидание Райли / Riley's First Date? (Джош Кули ) [2015, мультфильм, короткометражка, комедия, BDRip 1080p от _denis_100 / NNNB] Дублированный pb.wtf

Первое свидание Райли через торрент pb.wtf

Раздают: 1 [ 0 KB/s ]
Размер: 323 MB | Добавлен: 3 года 10 мес. назад | Торрент скачан:276 раз
Скачать  

04-02-2016 17:21 Первое свидание Райли Скачать торрент  

Первое свидание Райли / Riley's First Date?


Год выпуска: 2015
Страна: США
Жанр: мультфильм, короткометражка, комедия, семейный
Продолжительность: 00:04:40
Перевод: Дублированный
Субтитры: русские, английские
Режиссер: Джош Кули
В ролях: Пит Доктер , Бен Кокс , Кайл МакЛоклен , Дайан Лэйн , Кейтлин Диас , Джош Кули , Шерри Линн , Билл Хейдер , Фли , Паула Пелл , Лорейн Ньюмен , Лори Алан
Описание:
После удачного проката мультфильма «Головоломка», совместного производства анимационных студий Disney и Pixar, создатели решили побаловать своих фанатов короткометражкой. Мультик получил название «Первое свидание Райли?», которое говорит само за себя. В жизни каждого ребенка наступает момент, когда он вырастает, и его отношения со сверстниками переходят на новый уровень. Вот только для родителей это всегда становится неожиданностью, сколько бы лет ни исполнилось их чаду. Мистер и миссис Андерсон так же оказались не готовы к тому, что у их дочери появится молодой человек.

G - Нет возрастных ограничений
Качество: BDRip 1080p
Контейнер (Расширение): MKV
Видео: 1920x1080, 8172 Кбит/сек, 23,976 кадр/сек, 0,164 Бит/[Пиксели*Кадры]
Аудио №1: русский / AC3 / 5.1 / 48 kHz / 640 kbps / 16 bit |Дублированный|
Аудио №2: английский / AC3 / 5.1 / 48 kHz / 640 kbps / 16 bit
Навигация по главам(Чаптеры): естьАвтор рипа: Сообщество:

Код:

Format                                   : Matroska
Format version                           : Version 2
File size                                : 323 MiB
Duration                                 : 4mn 40s
Overall bit rate                         : 9 644 Kbps
Movie name                               : Riley's First Date.(2015).BDRip.1080p.[denis100]
Encoded date                             : UTC 2016-02-04 17:04:20
Writing application                      : mkvmerge v5.8.0 ('No Sleep / Pillow') built on Sep  2 2012 15:37:04
Writing library                          : libebml v1.2.3 + libmatroska v1.3.0

Video
ID                                       : 1
Format                                   : AVC
Format/Info                              : Advanced Video Codec
Format profile                           : High@L4.1
Format settings, CABAC                   : Yes
Format settings, ReFrames                : 4 frames
Codec ID                                 : V_MPEG4/ISO/AVC
Duration                                 : 4mn 40s
Bit rate                                 : 8 172 Kbps
Width                                    : 1 920 pixels
Height                                   : 1 080 pixels
Display aspect ratio                     : 16:9
Frame rate                               : 23.976 fps
Color space                              : YUV
Chroma subsampling                       : 4:2:0
Bit depth                                : 8 bits
Scan type                                : Progressive
Bits/(Pixel*Frame)                       : 0.164
Stream size                              : 273 MiB (85%)
Title                                    : Riley's First Date.(2015).BDRip.1080p.[denis100]
Writing library                          : x264 core 148 r2638 7599210
Encoding settings                        : cabac=1 / ref=4 / deblock=1:0:0 / analyse=0x3:0x133 / me=umh / subme=11 / psy=1 / psy_rd=1.00:0.00 / mixed_ref=1 / me_range=32 / chroma_me=1 / trellis=2 / 8x8dct=1 / cqm=0 / deadzone=21,11 / fast_pskip=0 / chroma_qp_offset=-2 / threads=6 / lookahead_threads=1 / sliced_threads=0 / nr=0 / decimate=1 / interlaced=0 / bluray_compat=0 / constrained_intra=0 / bframes=8 / b_pyramid=2 / b_adapt=2 / b_bias=0 / direct=3 / weightb=1 / open_gop=0 / weightp=2 / keyint=240 / keyint_min=23 / scenecut=40 / intra_refresh=0 / rc=crf / mbtree=0 / crf=17.9 / qcomp=0.60 / qpmin=0 / qpmax=69 / qpstep=4 / ip_ratio=1.40 / pb_ratio=1.30 / aq=1:1.00
Language                                 : English
Default                                  : Yes
Forced                                   : No

Audio #1
ID                                       : 2
Format                                   : AC-3
Format/Info                              : Audio Coding 3
Mode extension                           : CM (complete main)
Codec ID                                 : A_AC3
Duration                                 : 4mn 40s
Bit rate mode                            : Constant
Bit rate                                 : 640 Kbps
Channel(s)                               : 6 channels
Channel positions                        : Front: L C R, Side: L R, LFE
Sampling rate                            : 48.0 KHz
Bit depth                                : 16 bits
Compression mode                         : Lossy
Stream size                              : 21.4 MiB (7%)
Title                                    : Дубляж
Language                                 : Russian
Default                                  : Yes
Forced                                   : No

Audio #2
ID                                       : 3
Format                                   : AC-3
Format/Info                              : Audio Coding 3
Mode extension                           : CM (complete main)
Codec ID                                 : A_AC3
Duration                                 : 4mn 40s
Bit rate mode                            : Constant
Bit rate                                 : 640 Kbps
Channel(s)                               : 6 channels
Channel positions                        : Front: L C R, Side: L R, LFE
Sampling rate                            : 48.0 KHz
Bit depth                                : 16 bits
Compression mode                         : Lossy
Stream size                              : 21.4 MiB (7%)
Language                                 : English
Default                                  : No
Forced                                   : No

Text #1
ID                                       : 4
Format                                   : UTF-8
Codec ID                                 : S_TEXT/UTF8
Codec ID/Info                            : UTF-8 Plain Text
Language                                 : Russian
Default                                  : No
Forced                                   : No

Text #2
ID                                       : 5
Format                                   : UTF-8
Codec ID                                 : S_TEXT/UTF8
Codec ID/Info                            : UTF-8 Plain Text
Language                                 : English
Default                                  : No
Forced                                   : No

Menu
00:00:00.000                             : en:00:00:00.000
00:00:58.350                             : en:00:00:58.350
00:02:45.874                             : en:00:02:45.874
00:03:10.107                             : en:00:03:10.107

x264 [info]: frame I:73 Avg QP:13.46 size:237540
x264 [info]: frame P:1942 Avg QP:15.08 size: 77137
x264 [info]: frame B:4715 Avg QP:16.61 size: 26776
pb.wtf



Скачать Первое свидание Райли через торрент http://6.firepic.org/6/images/2016-02/04/i6v76x683npt.png Скачать фильм Первое свидание Райли через торрент бесплантно в хорошем качестве Описание:После удачного проката мультфильма «Головоломка», совместного производства анимационных студий Disney и Pixar, создатели решили ... 10 10 5
Info! Золотая раздача, скачанное не засчитывается.
Торрент: Зарегистрирован [2016-02-04 17:21] · скачан: 276 раз
Статус: √ проверено
Размер: 323 MB
Как cкачать? Как скачать Первое свидание Райли через торрент | qTorrent

28-11-2019 20:33  

Отключить всю рекламу на сайте

    Дорогой пользователь! Огромная просьба, поблагодарите релизера, оцените раздачу и оставьте свои комментарий, если Вы скачали Первое свидание Райли через торрент бесплатно! Внесите свою лепту в развитие PiratBit!
    Комментировать посты могут только пользователи прошедшие не сложную регистрацию
    Показать сообщения:    

    Первое свидание Райли через торрент
    Скачать бесплатно Первое свидание Райли
    Первое свидание Райли скачать торрент
    Первое свидание Райли смотреть онлайн
    Cкачать фильм Первое свидание Райли бесплатно
    Первое свидание Райли скачать торрент в хорошем качестве
    Первое свидание Райли смотреть онлайн бесплатно в хорошем качестве


    Вы не можете начинать темы
    Вы не можете отвечать на сообщения
    Вы не можете редактировать свои сообщения
    Вы не можете удалять свои сообщения
    Вы не можете голосовать в опросах
    Вы не можете прикреплять файлы к сообщениям
    Вы можете скачивать файлы