Ссылка на приватное зеркало всего за 1$. Внимание количество ограничено!!!

OK

1+1

iTunes

мы

OK

1

WEB-DLRip

Джокер

Пифагор

Ведьмак / The Witcher сериал

iTunes

ПШазам

ОК

Оно 2

iTunes

30
pack

Вам бонус

ВАЖНО

!!Акция!!

Alien_RageХит недели

RePack

Resident Evil 21

ИГРА 18+

pack

RePack

jed

RePack

fifa19

RePack

Assassins Creed: Odyssey

RePack

NEED FOR SPEED™ PAYBACK

4 сезон

9 сезон

Бесстыжие 9 сезон

Все сериалы

все сериалы на PB.wtf

RePack

FAR CRY 5
  

Дневник девочки-подростка / The Diary of a Teenage Girl (Мариэль Хеллер / Marielle Heller) [2015, США, драма, мелодрама, BDRip-AVC от sokol_ok] MVO [iTunes] pb.wtf

Дневник девочки-подростка через торрент pb.wtf

Размер: 2.14 GB | Добавлен: 3 года 11 мес. назад | Торрент скачан:188 раз
Скачать  

05-02-2016 10:09 Дневник девочки-подростка Скачать торрент  

Дневник девочки-подростка
The Diary of a Teenage Girl


Страна: США
Жанр: драма, мелодрама

Год выпуска: 2015
Продолжительность: 01:42:08

Перевод: Профессиональный (многоголосый, закадровый) [Лицензия iTunes]
Субтитры: Русские (полные), украинские (полные), английские (полные, SDH, SDH Colored)
Оригинальная аудиодорожка: английский

Режиссер: Мариэль Хеллер / Marielle Heller

В ролях: Бел Паули, Willie, Кристен Уиг, Эбби Уэйт, Александр Скарсгард, Миранда Бэйли, Карсон Д. Мелл, Джон Парсонс, Madeleine Waters, Остин Лион, Quinn Nagle, Дави Клементс

Описание:
История девочки-подростка, живущей в Сан-Франциско в 70-е годы, которая завела интрижку с бойфрендом своей мамы. Релиз:

Автор рипа: Stalker oK

Сэмпл

Качество видео: BDRip-AVC [HDSky / Blu-ray Remux / 1080p]
Формат видео: MKV
Видео кодек: AVC
Аудио кодек: AC3
Видео: 2161 Кбит/сек, 1080*450 (2,40:1), в 23,976 (24000/1001) кадра/сек, AVC
Аудио #1: Russian, 384 Кбит/сек, 48,0 КГц, 6 каналов, AC-3
Аудио #2: English, 448 Кбит/сек, 48,0 КГц, 6 каналов, AC-3
Навигация по главам: есть

Общее
Уникальный идентификатор : 204284905625454229298934389055727510237 (0x99AFD77931E8ADB4B8DE1018722EA2DD)
Полное имя : M:\Rips3\The Diary of a Teenage Girl\The.Diary.of.a.Teenage.Girl.2015.BDRip-AVC.MVO.2.18Gb.stalkerok.new-team.mkv
Формат : Matroska
Версия формата : Version 4 / Version 2
Размер файла : 2,14 Гбайт
Продолжительность : 1 ч. 42 м.
Общий поток : 2996 Кбит/сек
Название фильма : The Diary of a Teenage Girl (2015) (New-Team) (Rip by Stalker oK)
Дата кодирования : UTC 2016-02-05 09:57:45
Программа кодирования : mkvmerge v8.6.1 ('Flying') 64bit
Библиотека кодирования : libebml v1.3.3 + libmatroska v1.4.4

Видео
Идентификатор : 1
Формат : AVC
Формат/Информация : Advanced Video Codec
Профиль формата : High@L4.1
Параметр CABAC формата : Да
Параметр ReFrames формата : 14 кадров
Идентификатор кодека : V_MPEG4/ISO/AVC
Продолжительность : 1 ч. 42 м.
Битрейт : 2161 Кбит/сек
Ширина : 1080 пикселей
Высота : 450 пикселей
Соотношение сторон : 2,40:1
Режим частоты кадров : Постоянный
Частота кадров : 23,976 (24000/1001) кадра/сек
Цветовое пространство : YUV
Субдискретизация насыщенности : 4:2:0
Битовая глубина : 8 бит
Тип развёртки : Прогрессивная
Бит/(Пиксели*Кадры) : 0.185
Размер потока : 1,54 Гбайт (72%)
Заголовок : The Diary of a Teenage Girl (2015) (New-Team) (Rip by Stalker oK)
Библиотека кодирования : x264 core 148 r2665kMod a01e339
Настройки программы : cabac=1 / ref=14 / deblock=1:-3:-3 / analyse=0x3:0x133 / me=umh / subme=11 / psy=1 / fade_compensate=0.00 / psy_rd=1.00:0.10 / mixed_ref=1 / me_range=48 / chroma_me=1 / trellis=2 / 8x8dct=1 / cqm=0 / deadzone=21,11 / fast_pskip=0 / chroma_qp_offset=-3 / threads=12 / lookahead_threads=3 / sliced_threads=0 / nr=0 / decimate=0 / interlaced=0 / bluray_compat=0 / constrained_intra=0 / fgo=0 / bframes=15 / b_pyramid=2 / b_adapt=2 / b_bias=0 / direct=3 / weightb=1 / open_gop=0 / weightp=2 / keyint=240 / keyint_min=23 / scenecut=40 / intra_refresh=0 / rc_lookahead=60 / rc=2pass / mbtree=0 / bitrate=2161 / ratetol=1.0 / qcomp=0.70 / qpmin=0 / qpmax=69 / qpstep=4 / cplxblur=20.0 / qblur=0.5 / vbv_maxrate=50000 / vbv_bufsize=62500 / nal_hrd=none / filler=0 / ip_ratio=1.40 / pb_ratio=1.30 / aq=3:0.90
Default : Да
Forced : Нет

Аудио #1
Идентификатор : 2
Формат : AC-3
Формат/Информация : Audio Coding 3
Расширение режима : CM (complete main)
Параметр Endianness формата : Big
Идентификатор кодека : A_AC3
Продолжительность : 1 ч. 42 м.
Вид битрейта : Постоянный
Битрейт : 384 Кбит/сек
Каналы : 6 каналов
Расположение каналов : Front: L C R, Side: L R, LFE
Частота : 48,0 КГц
Частота кадров : 31,250 кадров/сек (1536 spf)
Метод сжатия : С потерями
Размер потока : 281 Мбайт (13%)
Язык : Russian
Default : Да
Forced : Нет

Аудио #2
Идентификатор : 3
Формат : AC-3
Формат/Информация : Audio Coding 3
Расширение режима : CM (complete main)
Параметр Endianness формата : Big
Идентификатор кодека : A_AC3
Продолжительность : 1 ч. 42 м.
Вид битрейта : Постоянный
Битрейт : 448 Кбит/сек
Каналы : 6 каналов
Расположение каналов : Front: L C R, Side: L R, LFE
Частота : 48,0 КГц
Частота кадров : 31,250 кадров/сек (1536 spf)
Метод сжатия : С потерями
Размер потока : 327 Мбайт (15%)
Язык : English
Default : Нет
Forced : Нет

Текст #1
Идентификатор : 4
Формат : UTF-8
Идентификатор кодека : S_TEXT/UTF8
Идентификатор кодека/Информация : UTF-8 Plain Text
Продолжительность : 1 ч. 35 м.
Битрейт : 74 бит/сек
Count of elements : 1057
Размер потока : 52,1 Кбайт (0%)
Язык : Russian
Default : Нет
Forced : Нет

Текст #2
Идентификатор : 5
Формат : UTF-8
Идентификатор кодека : S_TEXT/UTF8
Идентификатор кодека/Информация : UTF-8 Plain Text
Продолжительность : 1 ч. 35 м.
Битрейт : 76 бит/сек
Count of elements : 1056
Размер потока : 53,5 Кбайт (0%)
Язык : Ukrainian
Default : Нет
Forced : Нет

Текст #3
Идентификатор : 6
Формат : UTF-8
Идентификатор кодека : S_TEXT/UTF8
Идентификатор кодека/Информация : UTF-8 Plain Text
Продолжительность : 1 ч. 40 м.
Битрейт : 53 бит/сек
Count of elements : 1214
Размер потока : 39,5 Кбайт (0%)
Язык : English
Default : Нет
Forced : Нет

Текст #4
Идентификатор : 7
Формат : UTF-8
Идентификатор кодека : S_TEXT/UTF8
Идентификатор кодека/Информация : UTF-8 Plain Text
Продолжительность : 1 ч. 40 м.
Битрейт : 57 бит/сек
Count of elements : 1310
Размер потока : 42,5 Кбайт (0%)
Заголовок : SDH
Язык : English
Default : Нет
Forced : Нет

Текст #5
Идентификатор : 8
Формат : UTF-8
Идентификатор кодека : S_TEXT/UTF8
Идентификатор кодека/Информация : UTF-8 Plain Text
Продолжительность : 1 ч. 40 м.
Битрейт : 68 бит/сек
Count of elements : 1312
Размер потока : 50,4 Кбайт (0%)
Заголовок : SDH Colored
Язык : English
Default : Нет
Forced : Нет

Меню
00:00:00.000 : en:Chapter 1
00:06:43.151 : en:Chapter 2
00:14:35.915 : en:Chapter 3
00:20:25.848 : en:Chapter 4
00:28:04.766 : en:Chapter 5
00:34:59.972 : en:Chapter 6
00:40:59.664 : en:Chapter 7
00:45:02.614 : en:Chapter 8
00:50:04.251 : en:Chapter 9
00:56:26.590 : en:Chapter 10
01:01:52.541 : en:Chapter 11
01:08:04.996 : en:Chapter 12
01:16:34.965 : en:Chapter 13
01:23:41.765 : en:Chapter 14
01:29:15.224 : en:Chapter 15
01:36:01.671 : en:Chapter 16
pb.wtf



Скачать Дневник девочки-подростка через торрент http://i72.fastpic.ru/big/2015/0531/46/68ef8a2783b58e5344cc30bbd3f1b046.png Скачать фильм Дневник девочки-подростка через торрент бесплантно в хорошем качестве Описание:История девочки-подростка, живущей в Сан-Франциско в 70-е годы, которая завела интрижку с бойфрендом своей мамы. Релиз: ... 9.8 10 10
Info! Золотая раздача, скачанное не засчитывается.
Торрент: Зарегистрирован [2016-02-05 10:09] · скачан: 188 раз
Статус: √ проверено
Размер: 2.14 GB
Как cкачать? Как скачать Дневник девочки-подростка через торрент | qTorrent

% Раздел Тема Автор DL S | L
Фильмы 2015 [DVDrip, WEB-DLRip, HDrip] [ 1.42 GB ] Дневник девочки-подростка / The Diary of a Teenage Girl [2015 BDRip-AVC от sokol_ok] MVO sokol_ok Скачать
2 | 0
Фильмы (Blu-ray, BD-Remux, HDDVD) [ 32.53 GB ] Дневник девочки-подростка / The Diary of a Teenage Girl [2015 Blu-Ray от BlueBird] MVO Russian Mafia Скачать
1 | 0
Фильмы 2015 [DVDrip, WEB-DLRip, HDrip] [ 1.42 GB ] Дневник девочки-подростка / The Diary of a Teenage Girl [2015 BDRip-AVC] MVO potroks Скачать
1 | 0
T Фильмы [HD 720p, 1080p] (Хороший звук DUB, MVO) [ 7.92 GB ] Дневник девочки-подростка / The Diary of a Teenage Girl [2015 BDRip 1080p многоголосый Ворон Скачать
1 | 0
Фильмы 2015 [DVDrip, WEB-DLRip, HDrip] [ 1.46 GB ] Дневник девочки-подростка / The Diary of a Teenage Girl [2015 HDRip] Ворон Скачать
1 | 0

28-11-2019 20:33  

Отключить всю рекламу на сайте

    Дорогой пользователь! Огромная просьба, поблагодарите релизера, оцените раздачу и оставьте свои комментарий, если Вы скачали Дневник девочки-подростка через торрент бесплатно! Внесите свою лепту в развитие PiratBit!
    Комментировать посты могут только пользователи прошедшие не сложную регистрацию
    Показать сообщения:    

    Дневник девочки-подростка через торрент
    Скачать бесплатно Дневник девочки-подростка
    Дневник девочки-подростка скачать торрент
    Дневник девочки-подростка смотреть онлайн
    Cкачать фильм Дневник девочки-подростка бесплатно
    Дневник девочки-подростка скачать торрент в хорошем качестве
    Дневник девочки-подростка смотреть онлайн бесплатно в хорошем качестве


    Вы не можете начинать темы
    Вы не можете отвечать на сообщения
    Вы не можете редактировать свои сообщения
    Вы не можете удалять свои сообщения
    Вы не можете голосовать в опросах
    Вы не можете прикреплять файлы к сообщениям
    Вы можете скачивать файлы