Ссылка на приватное зеркало всего за 1$. Внимание количество ограничено!!!

iTunes

iTunes

iTunes

1

iTunes

iTunes

iTunes

iTunes

iTunes

30
pack

$ от Little Big

ВАЖНО

!!Акция!!

Alien_RageХит недели

RePack

Resident Evil 21

ИГРА 18+

pack

RePack

jed

!!Акция!!

Alien_Rage

RePack

fifa19

RePack

Assassins Creed: Odyssey

RePack

NEED FOR SPEED™ PAYBACK

4 сезон

9 сезон

Бесстыжие 9 сезон

Все сериалы

все сериалы на PB.wtf

RePack

FAR CRY 5
  

Он – дракон (Индар Джендубаев) [2015, фэнтези, BDRip-AVC от potroks] Лицензия pb.wtf

Он – дракон через торрент pb.wtf

Размер: 2.18 GB | Добавлен: 4 года 3 мес. назад | Торрент скачан:673 раза
Скачать  

05-02-2016 18:24 Он – дракон Скачать торрент  

Он – дракон
«Любить страшно»
Год выпуска: 2015
Страна: Россия / Базелевс Продакшн
Жанр: фэнтези
Продолжительность: 01:47:04
Перевод: Оригинал [BD RUS]
Навигация по главам: есть
Режиссер: Индар Джендубаев
В ролях:

Мария Поезжаева (Мирослава), Матвей Лыков (Арман), Станислав Любшин (князь), Иева Андреевайте (Ярослава), Петр Романов (Игорь), Андрей Лебединский (Кормчий), Марта Тимофеева (дочь Миры и Армана), Иво Господинов (Арман мальчик), Егор Зубарчук (отец Армана), Виктория Рунцова (невеста 1), Анастасия Дубровина (невеста 2), Алена Чехова (невеста 3)
Описание: В разгар свадьбы княжну Мирославу похищает дракон, унося в свой замок на острове. В прошлом остались родные, жених, теперь только каменный плен в компании прекрасного Армана... но кто он и как оказался на острове? Мира поймет это слишком поздно: любовь к нему, человеку-дракону, откроет ей горькую истину - любить страшно.

Качество: BDRip-AVC
Формат: MKV
Видео кодек: AVC
Аудио кодек: AC3
Видео: 1148x488 (2.35:1), 2467 kbps, 24 fps, 0,183 bit/pixel
Аудио: AC3 / 5.1 / 48 kHz / 448 kbps / 16 bit

Релиз группы:
Автор рипа: potroks

Код:

General
Unique ID                                : 220936353480323050843028758108853268906 (0xA636CB3CD7EDDE77B0CE5DEE132871AA)
Complete name                            : On.Drakon.2015.RUS.BDRip.x264.-HELLYWOOD.mkv
Format                                   : Matroska
Format version                           : Version 4 / Version 2
File size                                : 2.18 GiB
Duration                                 : 1h 47mn
Overall bit rate                         : 2 913 Kbps
Movie name                               : Он – дракон (2015) - HELLYWOOD
Encoded date                             : UTC 2016-02-05 18:10:16
Writing application                      : mkvmerge v5.9.0 ('On The Loose') built on Dec 15 2012 16:39:58
Writing library                          : libebml v1.3.0 + libmatroska v1.4.0

Video
ID                                       : 1
Format                                   : AVC
Format/Info                              : Advanced Video Codec
Format profile                           : High@L4.1
Format settings, CABAC                   : Yes
Format settings, ReFrames                : 10 frames
Codec ID                                 : V_MPEG4/ISO/AVC
Duration                                 : 1h 47mn
Bit rate                                 : 2 467 Kbps
Width                                    : 1 148 pixels
Height                                   : 488 pixels
Display aspect ratio                     : 2.35:1
Frame rate                               : 24.000 fps
Color space                              : YUV
Chroma subsampling                       : 4:2:0
Bit depth                                : 8 bits
Scan type                                : Progressive
Bits/(Pixel*Frame)                       : 0.183
Stream size                              : 1.80 GiB (83%)
Title                                    : potroks
Writing library                          : x264 core 146 r2538 121396c
Encoding settings                        : cabac=1 / ref=10 / deblock=1:-2:-2 / analyse=0x3:0x113 / me=umh / subme=11 / psy=1 / psy_rd=1.05:0.05 / mixed_ref=1 / me_range=48 / chroma_me=1 / trellis=2 / 8x8dct=1 / cqm=0 / deadzone=21,11 / fast_pskip=0 / chroma_qp_offset=-3 / threads=9 / lookahead_threads=2 / sliced_threads=0 / nr=0 / decimate=0 / interlaced=0 / bluray_compat=0 / constrained_intra=0 / bframes=11 / b_pyramid=2 / b_adapt=2 / b_bias=0 / direct=3 / weightb=1 / open_gop=0 / weightp=2 / keyint=240 / keyint_min=23 / scenecut=40 / intra_refresh=0 / rc_lookahead=60 / rc=2pass / mbtree=0 / bitrate=2467 / ratetol=1.0 / qcomp=0.70 / qpmin=0 / qpmax=69 / qpstep=4 / cplxblur=20.0 / qblur=0.5 / vbv_maxrate=14000 / vbv_bufsize=14000 / nal_hrd=none / filler=0 / ip_ratio=1.40 / pb_ratio=1.30 / aq=1:0.80
Language                                 : Russian
Default                                  : Yes
Forced                                   : No

Audio
ID                                       : 2
Format                                   : AC-3
Format/Info                              : Audio Coding 3
Mode extension                           : CM (complete main)
Codec ID                                 : A_AC3
Duration                                 : 1h 47mn
Bit rate mode                            : Constant
Bit rate                                 : 448 Kbps
Channel(s)                               : 6 channels
Channel positions                        : Front: L C R, Side: L R, LFE
Sampling rate                            : 48.0 KHz
Bit depth                                : 16 bits
Compression mode                         : Lossy
Stream size                              : 343 MiB (15%)
Title                                    : Original | DD 5.1 @ 448 kbps - Blu-Ray RUS
Language                                 : Russian
Default                                  : Yes
Forced                                   : No

Menu
00:00:00.000                             : en:(01)00:00:00:000
00:08:32.041                             : en:(02)00:08:32:041
00:17:11.583                             : en:(03)00:17:11:583
00:26:33.875                             : en:(04)00:26:33:875
00:30:51.333                             : en:(05)00:30:51:333
00:42:29.916                             : en:(06)00:42:29:916
00:53:36.041                             : en:(07)00:53:36:041
01:03:58.083                             : en:(08)01:03:58:083
01:09:32.166                             : en:(09)01:09:32:166
01:15:17.750                             : en:(10)01:15:17:750
01:21:58.833                             : en:(11)01:21:58:833
01:35:46.000                             : en:(12)01:35:46:000
01:47:04.541                             : en:(13)01:47:04:541

pb.wtf



Скачать Он – дракон через торрент http://i73.fastpic.ru/big/2016/0205/6c/85c15f7bd9e2bf2e34d511f304dda46c.png Скачать фильм Он – дракон через торрент бесплантно в хорошем качестве Описание: В разгар свадьбы княжну Мирославу похищает дракон, унося в свой замок на острове. В прошлом остались родные, жених, теперь ... 8.7 10 14
Info! Золотая раздача, скачанное не засчитывается.
Торрент: Зарегистрирован [2016-02-05 18:24] · скачан: 673 раз
Статус: √ проверено
Размер: 2.18 GB
Как cкачать? Как скачать Он – дракон через торрент | qTorrent

% Раздел Тема Автор DL S | L
Иностранные мультфильмы [ 744 MB ] Как приручить дракона 3 / How to Train Your Dragon: The Hidden World [2019 мультфильм HDRip] DUB [] bober100 Скачать
2 | 0
Ultra HD (UHD: 2K, 4K, 8K) [ 88.44 GB ] Как приручить дракона 3 / How to Train Your Dragon: The Hidden World [2019 мультфильм UHD Blu-Ray EUR 2160p] DUB [] bober100 Скачать
1 | 0
Иностранные мультфильмы [ 2.15 GB ] Как приручить дракона 3 / How to Train Your Dragon: The Hidden World [2019 мультфильм BDRip-AVC] DUB [] +MVO [HDRezka Studio] bober100 Скачать
6 | 0
Зарубежные Мультфильмы (BDRip 1080p, 720p, Blu-ray, BD-Remux) [ 8.29 GB ] Как приручить дракона 3 / How to Train Your Dragon: The Hidden World [2019 мультфильм BDRip 1080p] DUB [] +MVO [HDRezka Studio] bober100 Скачать
7 | 0
Зарубежные Мультфильмы (BDRip 1080p, 720p, Blu-ray, BD-Remux) [ 5.06 GB ] Как приручить дракона 3 / How to Train Your Dragon: The Hidden World [2019 мультфильм BDRip 720p] DUB [] +MVO [HDRezka Studio] bober100 Скачать
3 | 0
Иностранные мультфильмы [ 1.46 GB ] Как приручить дракона 3 / How to Train Your Dragon: The Hidden World [2019 мультфильм BDRip] DUB [ Blu-Ray 4K] bober100 Скачать
2 | 0
Зарубежные Мультфильмы (BDRip 1080p, 720p, Blu-ray, BD-Remux) [ 34.83 GB ] Как приручить дракона 3 / How to Train Your Dragon: The Hidden World [2019 мультфильм BD Remux 1080p] [2D/3D] DUB [] bober100 Скачать
1 | 0

28-11-2019 20:33  

Отключить всю рекламу на сайте

23-02-2016 10:07 Он – дракон Скачать торрент  

Посмотрел... - один из лучших Российских фильмов, который посмотрел лет за 5-7.
Отличный фильм: красивый, добрый, без пошлости и насилия. 10 из 10 баллов. Жалею, что не в кино смотрел.pb.wtf



04-04-2016 06:26 Он – дракон Скачать торрент  

Отличный фильм! Не ожидал!pb.wtf



    Дорогой пользователь! Огромная просьба, поблагодарите релизера, оцените раздачу и оставьте свои комментарий, если Вы скачали Он – дракон через торрент бесплатно! Внесите свою лепту в развитие PiratBit!
    Комментировать посты могут только пользователи прошедшие не сложную регистрацию
    Показать сообщения:    

    Он – дракон через торрент
    Скачать бесплатно Он – дракон
    Он – дракон скачать торрент
    Он – дракон смотреть онлайн
    Cкачать фильм Он – дракон бесплатно
    Он – дракон скачать торрент в хорошем качестве
    Он – дракон смотреть онлайн бесплатно в хорошем качестве


    Вы не можете начинать темы
    Вы не можете отвечать на сообщения
    Вы не можете редактировать свои сообщения
    Вы не можете удалять свои сообщения
    Вы не можете голосовать в опросах
    Вы не можете прикреплять файлы к сообщениям
    Вы можете скачивать файлы