Ссылка на приватное зеркало всего за 1$. Внимание количество ограничено!!!

OK

1+1

iTunes

мы

OK

1

WEB-DLRip

Джокер

Пифагор

Ведьмак / The Witcher сериал

iTunes

ПШазам

ОК

Оно 2

iTunes

30
pack

Вам бонус

ВАЖНО

!!Акция!!

Alien_RageХит недели

RePack

Resident Evil 21

ИГРА 18+

pack

RePack

jed

RePack

fifa19

RePack

Assassins Creed: Odyssey

RePack

NEED FOR SPEED™ PAYBACK

4 сезон

9 сезон

Бесстыжие 9 сезон

Все сериалы

все сериалы на PB.wtf

RePack

FAR CRY 5
  

Пэн: Путешествие в Нетландию / Pan (Джо Райт) [2015 г., фэнтези, приключения, семейный, HDRip, Дубляж "BD CEE"] pb.wtf

Пэн: Путешествие в Нетландию через торрент pb.wtf

Размер: 2.19 GB | Добавлен: 3 года 11 мес. назад | Торрент скачан:375 раз
Скачать  

05-02-2016 18:27 Пэн: Путешествие в Нетландию Скачать торрент  

Пэн: Путешествие в Нетландию / Pan
Год выпуска: 2015
Страна: США, Великобритания, Австралия / Warner Bros., RatPac-Dune Entertainment, Berlanti Productions
Жанр: фэнтези, приключения, семейный
Продолжительность: 01:51:32
Перевод: Дубляж (BD CEE)

Режиссер: Джо Райт

IMDB 5.90 (25 198)


В ролях: Хью Джекман, Леви Миллер, Гаррет Хедлунд, Руни Мара, Адиль Ахтар, Нонсо Анози, Аманда Сайфред, Кэти Бёрк, Льюис МакДугалл, Кара Делевинь

Описание: История о сироте, который попал в волшебную Нетландию, где его поджидали опасные приключения. Там он понял, что его судьба — стать героем, который навсегда останется известен под именем Питер Пэн.

Качество: HDRip
Формат: AVI
Видео кодек: XviD
Аудио кодек: AC3
Видео: MPEG4, XviD, 720x304 (2.35:1), 23.976 fps, 2 352 Kbps (0.448 bit/pixel)
Аудио: AC-3, 48.0 KHz, 6 ch, 448 Kbps, CBR
скриншот   скриншот   скриншот   скриншот   скриншот   скриншот  

Общее
Полное имя : F:\кино\Пэн. Путешествие в Нетландию.2015.HDRip.avi
Формат : AVI
Формат/Информация : Audio Video Interleave
Профиль формата : OpenDML
Размер файла : 2,19 Гбайт
Продолжительность : 1 ч. 51 м.
Общий поток : 2811 Кбит/сек
Программа кодирования : VirtualDubMod 1.5.10.3 | www.virtualdub-fr.org || (build 2550/release)
Библиотека кодирования : VirtualDubMod build 2550/release

Видео
Идентификатор : 0
Формат : MPEG-4 Visual
Профиль формата : Advanced Simple@L5
Параметр BVOP формата : 2
Параметр QPel формата : Нет
Параметр GMC формата : Без точки перехода
Параметр матрицы формата : Default (H.263)
Идентификатор кодека : XVID
Идентификатор кодека/Подсказка : XviD
Продолжительность : 1 ч. 51 м.
Битрейт : 2352 Кбит/сек
Ширина : 720 пикселей
Высота : 304 пикселя
Соотношение сторон : 2,35:1
Частота кадров : 23,976 (23976/1000) кадра/сек
Цветовое пространство : YUV
Субдискретизация насыщенности : 4:2:0
Битовая глубина : 8 бит
Тип развёртки : Прогрессивная
Метод сжатия : С потерями
Бит/(Пиксели*Кадры) : 0.448
Размер потока : 1,83 Гбайт (84%)
Библиотека кодирования : XviD 1.2.1 (UTC 2008-12-04)

Аудио
Идентификатор : 1
Формат : AC-3
Формат/Информация : Audio Coding 3
Расширение режима : CM (complete main)
Параметр Endianness формата : Big
Идентификатор кодека : 2000
Продолжительность : 1 ч. 51 м.
Вид битрейта : Постоянный
Битрейт : 448 Кбит/сек
Каналы : 6 каналов
Расположение каналов : Front: L C R, Side: L R, LFE
Частота : 48,0 КГц
Частота кадров : 31,250 кадров/сек (1536 spf)
Метод сжатия : С потерями
Размер потока : 357 Мбайт (16%)
Выравнивание : Разделение по промежуткам
Продолжительность промежутка : 42 мс. (1,00 видеокадр)
Время предзагрузки промежутка : 500 мс.

pb.wtf



Скачать Пэн: Путешествие в Нетландию через торрент http://pic.kartinco.top/images/11/8mq1c.jpg Скачать фильм Пэн: Путешествие в Нетландию через торрент бесплантно в хорошем качестве Описание: История о сироте, который попал в волшебную Нетландию, где его поджидали опасные приключения. Там он понял, что его судьба — ... 8.6 10 11
Торрент: Зарегистрирован [2016-02-05 18:27] · скачан: 375 раз
Статус: √ проверено
Размер: 2.19 GB
Как cкачать? Как скачать Пэн: Путешествие в Нетландию через торрент | qTorrent

% Раздел Тема Автор DL S | L
Ultra HD (UHD: 2K, 4K, 8K) — видео сверхвысокой чёткости [ 48.38 GB ] Пэн: Путешествие в Нетландию / Pan [2015 UHD BDRemux 2160p] - [] sheker187 Скачать
1 | 0
3D Фильмы [ 37.39 GB ] Пэн: Путешествие в Нетландию 3D / Pan 3D [2015 Blu-ray disc 1080p] DUB BD CEE voovaz Скачать
1 | 0
Фильмы (HD 720p, 1080p) (48-60 fps) [ 5.19 GB ] Пэн: Путешествие в Нетландию / Pan [2015 BDRip 720p 60fps от еnvy / NNNB] DUB еnvy Скачать
3 | 0
Фильмы (Blu-ray, BD-Remux, HDDVD) [ 23.81 GB ] Пэн: Путешествие в Нетландию / Pan [2015 BD Remux ] Бумер Скачать
1 | 1
Фильмы 2015 [DVDrip, WEB-DLRip, HDrip] [ 1.46 GB ] Пэн: Путешествие в Нетландию / Pan [2015 BDRip] DUB Twi7ter Скачать
2 | 0
3D Фильмы [ 15.03 GB ] Пэн: Путешествие в Нетландию / Pan [2015 BDrip 1080p] DUB OverUnder / Вертикальная стереопара serega768 Скачать
1 | 0
Фильмы (Blu-ray, BD-Remux, HDDVD) [ 34.96 GB ] Пэн: Путешествие в Нетландию / Pan [2015 Blu-Ray] от BlueBird / лицензия Russian Mafia Скачать
1 | 0

28-11-2019 20:33  

Отключить всю рекламу на сайте

    Дорогой пользователь! Огромная просьба, поблагодарите релизера, оцените раздачу и оставьте свои комментарий, если Вы скачали Пэн: Путешествие в Нетландию через торрент бесплатно! Внесите свою лепту в развитие PiratBit!
    Комментировать посты могут только пользователи прошедшие не сложную регистрацию
    Показать сообщения:    

    Пэн: Путешествие в Нетландию через торрент
    Скачать бесплатно Пэн: Путешествие в Нетландию
    Пэн: Путешествие в Нетландию скачать торрент
    Пэн: Путешествие в Нетландию смотреть онлайн
    Cкачать фильм Пэн: Путешествие в Нетландию бесплатно
    Пэн: Путешествие в Нетландию скачать торрент в хорошем качестве
    Пэн: Путешествие в Нетландию смотреть онлайн бесплатно в хорошем качестве


    Вы не можете начинать темы
    Вы не можете отвечать на сообщения
    Вы не можете редактировать свои сообщения
    Вы не можете удалять свои сообщения
    Вы не можете голосовать в опросах
    Вы не можете прикреплять файлы к сообщениям
    Вы можете скачивать файлы