Доктор Стрэндж

Лицензия

Добыча

MVO

Дом дракона

1 сезон

Тор

Лицензия

Мэверик

Лицензия

Там, где раки поют

MVO

Властелин колец

1 сезон

Ultimate

pack

Рекомендуем

30

Repack

ВАЖНО

ВАЖНО

Ghostwire

RePack

jed

RePack

nioh2

RePack

RDR2

RePack

NEED FOR SPEED™ PAYBACK

RePack

скачать торрент

Кинопоиск HD

Острые козырьки 6 сезон

6 сезон

FAR CRY 6

RePack

скачать торрент

Лицензия

скачать торрент

MVO

1

1 сезон

скачать торрент

1 сезон

скачать торрент

Лицензия

  

Морпехи 3: В осаде / Jarhead 3: The Siege (Уильям Кауфман) [2016 г., Боевик, BDRip (1080p), Дубляж Лицензия]

Морпехи 3: В осаде через торрент pb.wtf

Размер: 10.64 GB | Добавлен: 6 лет 7 мес. назад | Торрент скачан:137 раз
Смотреть онлайн Морпехи 3: В осаде | Скачать   

05-02-2016 19:37 Морпехи 3: В осаде Скачать торрент  

Морпехи 3: В осаде / Jarhead 3: The Siege
Год выпуска: 2016
Страна: США
Жанр: Боевик
Продолжительность: 01:28:59
Перевод: Дубляж Лицензия
Субтитры: Русские, английские

Режиссер: Уильям Кауфман

В ролях: Скотт Эдкинс, Чарли Вебер, Том Эйнсли, Эрик Валдез, Данте Баско, Саша Джексон, Дэннис Хэйсбёрт, Стефен Хоган, Джо Корригалл, Адриан Ховард

Описание: После весьма непростых и опасных спасательных боевых операций небольшая группа специализированных боевиков одерживает плевое как, казалось бы, по их мнению, задание. Молодые люди начинают работать над новой операцией, охраняют американское посольство, которое было размещено в довольно тихой и весьма мирной ближневосточной области. Группа спецназовцев пускает волю небольшим порокам. Увлекательные видеоигры заполняют их досуг, а местные шалавы повышают парням настроение, а бдительность, которая должна быть присуща наоборот притупилась. Когда раздалась автоматная стрельба за окном, стражники в ту же минуту отрезвели. И только заминка стоила жизни большинству безвинных ребят и сотрудников. Спустя некоторое время завязывается осада, признанная обескровить американцев. А потом начинается предсказанная казнь большого количества людей, в том числе и беззащитных дипломатов. Что касается позиции американской армии, то она внезапно пошатнулась. Молодым бойцам придется скинуть оковы расслабленности и тем самым дать немедленное сопротивление противнику, который окажется на их пути. Могут ли наши бойцы противостоять врагу и тем самым восстановить свое честное имя..

Качество: BDRip (1080p)
Формат: MKV
Видео кодек: AVC
Аудио кодек: DTS
Видео: MPEG-4 AVC, (1920x816),14500 Кбит/с, 23.976 кадра/сек
Аудио#1: DTS, 6 ch,768 kbps (Rus) 48.0 KHz Дублированный (Лицензия)
Аудио#2: DTS, 6 ch,1509 kbps (Eng) 48.0 KHz Оригинал
скриншот   скриншот   скриншот  

Тип потока: Видео
Длительность: 01:28:59
Кодек: AVC
Кодек/описание: Advanced Video Codec
Кодек/профиль: [email protected]
Кодек/ID: V_MPEG4/ISO/AVC
Кодек/CABAC: Yes
Кодек/ReFrames: 5 frames
Размеры изображения: 1920 x 816 (2.35:1)
Частота кадров: 23.976 fps
Частота кадров/тип: Constant
Размер потока: 9.01 GiB (85%)
Битрейт: 14.5 Mbps
Библиотека кодирования: x264 core 148 r2665 a01e339
Цветовое пространство: YUV
Тип развёртки: Progressive
Колориметрия: 4:2:0
Глубина: 8 bits

Тип потока: Звук #1
Язык: Russian
Длительность: 01:28:59.212
Кодек: DTS
Кодек/описание: Digital Theater Systems
Кодек/ID: A_DTS
Частота дискретизации: 48.0 KHz
Каналов: 6 channels
Битрейт: 768 Kbps
Битрейт/тип: Constant
Размер потока: 489 MiB (4%)
Глубина: 24 bits
Метод сжатия: Lossy
:
Тип потока: Звук #2
Язык: English
Длительность: 01:28:59.212
Кодек: DTS
Кодек/описание: Digital Theater Systems
Кодек/ID: A_DTS
Частота дискретизации: 48.0 KHz
Каналов: 6 channels
Битрейт: 1 509 Kbps
Битрейт/тип: Constant
Размер потока: 960 MiB (9%)
Глубина: 24 bits
Метод сжатия: Lossy
:
Тип потока: Субтитры #1
Язык: Russian
Формат: UTF-8
Формат/подробно: UTF-8 Plain Text
Название: Forced
:
Тип потока: Субтитры #2
Язык: Russian
Формат: UTF-8
Формат/подробно: UTF-8 Plain Text
Название: Full
:
Тип потока: Субтитры #3
Язык: English
Формат: UTF-8
Формат/подробно: UTF-8 Plain Text
:
Тип потока: Субтитры #4
Язык: English
Формат: UTF-8
Формат/подробно: UTF-8 Plain Text
Название: SDH




Скачать Морпехи 3: В осаде через торрент https://pic1.kartinco.top/images/10/emi9u.jpg Скачать, смотреть онлайн Морпехи 3: В осаде бесплантно в хорошем качестве Описание: После весьма непростых и опасных спасательных боевых операций небольшая группа специализированных боевиков одерживает плевое как, ... 8.2 10 10
Info! Золотая раздача, скачанное не засчитывается.
Торрент: Зарегистрирован [2016-02-05 19:37] · скачан: 137 раз
Статус: √ проверено
Размер: 10.64 GB
Как cкачать? Как скачать Морпехи 3: В осаде через торрент | UTorrent

% Раздел Тема Автор DL S | L
Фильмы (Blu-ray, BD-Remux, HDDVD) [ 30.71 GB ] Морпехи 3: В осаде / Jarhead 3: The Siege | Лицензия | Blu-ray, Дубляж Лицензия Бумер Скачать
1 | 1
Фильмы (Blu-ray, BD-Remux, HDDVD) [ 23.13 GB ] Морпехи 3: В осаде / Jarhead 3: The Siege | Лицензия | BD Remux, Дубляж Лицензия Бумер Скачать
1 | 0
Фильмы 2016 [DVDrip, WEB-DLRip, HDrip] (DUB, MVO) [ 706 MB ] Морпехи 3: В осаде / Jarhead 3: The Siege | Лицензия" | HDRip, Дубляж "Лицензия" coc900 Скачать
1 | 0

28-11-2019 20:33  

Отключить вcю реклaмy на сайте

05-02-2016 19:46 Морпехи 3: В осаде Скачать торрент  

5000 тысяч очков золото



05-02-2016 22:23 Морпехи 3: В осаде Скачать торрент  

За деньги всё можно купить 8)



06-02-2016 12:33 Морпехи 3: В осаде Скачать торрент  

Описание жжжёт!!! И с какого перепугу они НАШИМИ стали? Спасибо раздающему!



06-02-2016 18:45 Морпехи 3: В осаде Скачать торрент  

"Могут ли НАШИ бойцы противостоять врагу и тем самым восстановить свое честное имя.."
Мдя..



11-02-2016 20:01 Морпехи 3: В осаде Скачать торрент  

Как всегда всех уделали)))



13-11-2016 06:13 Морпехи 3: В осаде Скачать торрент  

встаньте в раздачу, плиз!



    Дорогой пользователь! Огромная просьба, поблагодарите релизера, оцените раздачу и оставьте свои комментарий, если Вы скачали Морпехи 3: В осаде через торрент бесплатно!!
    Комментировать посты могут только пользователи прошедшие не сложную регистрацию
    Показать сообщения:    


    Морпехи 3: В осаде через торрент
    Скачать бесплатно Морпехи 3: В осаде
    Морпехи 3: В осаде скачать торрент
    Морпехи 3: В осаде смотреть онлайн
    Cкачать фильм Морпехи 3: В осаде бесплатно
    Морпехи 3: В осаде скачать торрент в хорошем качестве
    Морпехи 3: В осаде смотреть онлайн бесплатно в хорошем качестве
    Вы не можете начинать темы
    Вы не можете отвечать на сообщения
    Вы не можете редактировать свои сообщения
    Вы не можете удалять свои сообщения
    Вы не можете голосовать в опросах
    Вы не можете прикреплять файлы к сообщениям
    Вы можете скачивать файлы