Присоединяйтесь к нам в Telegram!, здесь всегда актуальный адрес сайта, оперативная поддержка и многое другое!!

>

5.9

iTunes

7.4

iTunes

9.4

1 сезон

1

7.4

2 сезон

7.2

iTunes

7.3

1 сезон

13

6.1

iTunes

8.3

GOG

30

ULTIMATE

pack

9.9

Лицензия

ВАЖНО

ИГРА 18+

pack

7.3

RePack

MK11

7.7

RePack

jed

7.8

RePack

fifa19

8.5

RePack

RDR2

RePack

NEED FOR SPEED™ PAYBACK

5 сезон

9 сезон

Бесстыжие 9 сезон

Все сериалы

все сериалы на PB.wtf

RePack

FAR CRY 5

Anonymous, доброе утро, мы катастрофически не успеваем собрать деньги на оплату серверов, помогите нам пожалуйста 5,10,15р., для нас важна любая помощь . В качестве благодарности мы отключим Вам всю рекламу на сайте (укажите свой ник в строку Ваше имя)!

×
  
Magnet ссылка

Ленинград - Экспонат / Ленинград - Экспонат [2016 г., Rock, WEBRip 1080р, Русский] pb.wtf

Ленинград - Экспонат через торрент pb.wtf

Размер: 127 MB | Добавлен: 5 лет 9 мес. назад | Торрент скачан:256 раз
Смотреть онлайн Ленинград - Экспонат | Скачать    Ребята, помогите собрать деньги на оплату серверов!!!

06-02-2016 08:30 Ленинград - Экспонат Скачать торрент  

Ленинград - Экспонат / Ленинград - Экспонат
Год выпуска: 2016
Страна: Россия
Жанр: Rock
Продолжительность: 00:06:57
Перевод: Не требуется Русский

Качество: WEBRip 1080р
Формат: MP4
Видео кодек: AVC
Аудио кодек: AAC
Видео: MPEG-4 AVC, 1920x1080, 25,000 fps, 2 412 Kbps
Аудио#1: AAC 44.1 kHz, 2 channels, 126 kbps
C:\Users\ОЛЕГ\Downloads\Ленинград - Экспонат.mp4
General
Complete name : C:\Users\ОЛЕГ\Downloads\Ленинград - Экспонат.mp4
Format : MPEG-4
Format profile : Base Media
Codec ID : isom
File size : 127 MiB
Duration : 6mn 57s
Overall bit rate : 2 543 Kbps
Writing application : Lavf56.40.101
Video #1
ID : 1
Format : AVC
Format/Info : Advanced Video Codec
Format profile : High@L4
Format settings, CABAC : Yes
Format settings, ReFrames : 2 frames
Codec ID : avc1
Codec ID/Info : Advanced Video Coding
Duration : 6mn 57s
Duration_FirstFrame : -40ms
Bit rate : 2 412 Kbps
Width : 1 920 pixels
Height : 1 080 pixels
Display aspect ratio : 16:9
Frame rate mode : Variable
Frame rate : 25.000 fps
Minimum frame rate : 25.000 fps
Maximum frame rate : 25.014 fps
Color space : YUV
Chroma subsampling : 4:2:0
Bit depth : 8 bits
Scan type : Progressive
Bits/(Pixel*Frame) : 0.047
Stream size : 120 MiB (95%)
Color range : Limited
Color primaries : BT.709
Transfer characteristics : BT.709
Matrix coefficients : BT.709
Audio #1
ID : 2
Format : AAC
Format/Info : Advanced Audio Codec
Format profile : LC
Codec ID : 40
Duration : 6mn 57s
Bit rate mode : Constant
Bit rate : 126 Kbps
Channel(s) : 2 channels
Channel positions : Front: L R
Sampling rate : 44.1 KHz
Compression mode : Lossy
Stream size : 6.25 MiB (5%)

pb.wtf



Скачать Ленинград - Экспонат через торрент http://i73.fastpic.ru/big/2016/0206/ec/df34aebceb8452098f6b9a8fa4f210ec.jpg Скачать, смотреть онлайн Ленинград - Экспонат бесплантно в хорошем качестве Год выпуска: 2016Страна: РоссияЖанр: RockПродолжительность: 00:06:57Перевод: Не требуется ... 8.7 10 7
Торрент: Зарегистрирован [2016-02-06 08:30] · скачан: 256 раз
Статус: √ проверено
Размер: 127 MB
Как cкачать? Как скачать Ленинград - Экспонат через торрент | UTorrent

% Раздел Тема Автор DL S | L
Клипы [ 1.31 GB ] Ленинград - Экспонат [2016 Rock WEB-DL 1080p] opupokin Скачать
1 | 0


Последний раз редактировалось: koluchi80 (2016-02-06 09:15), всего редактировалось 1 раз

28-11-2019 20:33  

Отключить всю рекламу на сайте

06-02-2016 08:54 Ленинград - Экспонат Скачать торрент  

Скриншоты не соответствуют заявленному разрешениюpb.wtf



06-02-2016 09:20 Ленинград - Экспонат Скачать торрент  

Расстрелять!!!pb.wtf



06-02-2016 09:21 Ленинград - Экспонат Скачать торрент  

schultz писал(а):

Скриншоты не соответствуют заявленному разрешению

Все исправил pb.wtf



08-02-2016 18:59 Ленинград - Экспонат Скачать торрент  

pb.wtf



    Дорогой пользователь! Огромная просьба, поблагодарите релизера, оцените раздачу и оставьте свои комментарий, если Вы скачали Ленинград - Экспонат через торрент бесплатно!
    Комментировать посты могут только пользователи прошедшие не сложную регистрацию
    Показать сообщения:    

    Ленинград - Экспонат через торрент
    Скачать бесплатно Ленинград - Экспонат
    Ленинград - Экспонат скачать торрент
    Ленинград - Экспонат смотреть онлайн
    Cкачать фильм Ленинград - Экспонат бесплатно
    Ленинград - Экспонат скачать торрент в хорошем качестве
    Ленинград - Экспонат смотреть онлайн бесплатно в хорошем качестве


    Вы не можете начинать темы
    Вы не можете отвечать на сообщения
    Вы не можете редактировать свои сообщения
    Вы не можете удалять свои сообщения
    Вы не можете голосовать в опросах
    Вы не можете прикреплять файлы к сообщениям
    Вы можете скачивать файлы