Ссылка на приватное зеркало всего за 1$. Внимание количество ограничено!!!

OK

1+1

iTunes

мы

OK

1

WEB-DLRip

Джокер

Пифагор

Ведьмак / The Witcher сериал

iTunes

ПШазам

ОК

Оно 2

iTunes

30
pack

Вам бонус

ВАЖНО

!!Акция!!

Alien_RageХит недели

RePack

Resident Evil 21

ИГРА 18+

pack

RePack

jed

RePack

fifa19

RePack

Assassins Creed: Odyssey

RePack

NEED FOR SPEED™ PAYBACK

4 сезон

9 сезон

Бесстыжие 9 сезон

Все сериалы

все сериалы на PB.wtf

RePack

FAR CRY 5
  

Шеф Адам Джонс / Burnt (Джон Уэллс / John Wells) [2015, драма, комедия, BDRip-AVC от potroks] Dub [НТВ+] pb.wtf

Шеф Адам Джонс через торрент pb.wtf

Размер: 2.13 GB | Добавлен: 3 года 11 мес. назад | Торрент скачан:903 раза
Скачать  

06-02-2016 20:10 Шеф Адам Джонс Скачать торрент  

Шеф Адам Джонс / Burnt
«Never underestimate a man with nothing to lose»
Год выпуска: 2015
Страна: США / 3 Arts Entertainment, Double Feature Films, PeaPie Films
Жанр: драма, комедия
Продолжительность: 01:40:59
Перевод: Дубляж [НТВ+]
Субтитры: английские (Forced + Full + SDH + SDH-Colored)
Навигация по главам: есть
Режиссер: Джон Уэллс / John Wells
В ролях:

Брэдли Купер (Adam Jones), Сиенна Миллер (Helene), Омар Си (Michel), Даниэль Брюль (Tony), Риккардо Скамарчио (Max), Ума Турман (Simone Forth), Эмма Томпсон (Dr Rosshilde), Сэм Кили (David), Генри Гудман (Conti), Мэттью Риз (Reece), Стивен Кэмпбелл Мур (Jack), Lexie Benbow-Hart (Lily)
Описание: В центре сюжета - история некогда знаменитого шеф-повара, который из-за своего пагубного пристрастия теряет собственный ресторан в Париже, пониженный в рейтинге до унизительных двух звезд. Решив не сдаваться, он вновь собирает свою команду, перестраивает лондонский ресторан и надеется получить три звезды.

Качество: BDRip-AVC
Формат: MKV
Видео кодек: AVC
Аудио кодек: AC3
Видео: 1152x480 (2.40:1), 2194 kbps, 23,976 fps, 0.165 bit/pixel
Аудио#1: AC3 / 5.1 / 48 kHz / 384 kbps / 16 bit | RUS
Аудио#2: AC3 / 5.1 / 48 kHz / 448 kbps / 16 bit | ENG

Релиз группы:
Автор рипа: potroks

Код:

Общее
Уникальный идентификатор : 181290782248020574808226954031413366984 (0x886355A97A7736F2B16E2CF3891C90C8)
Полное имя : Shef.Adam.Dzhons.2015.DUAL.BDRip.x264.-HELLYWOOD.mkv
Формат : Matroska
Версия формата : Version 4 / Version 2
Размер файла : 2,13 Гбайт
Продолжительность : 1 ч. 40 м.
Общий поток : 3026 Кбит/сек
Название фильма : Burnt (2015) - HELLYWOOD
Дата кодирования : UTC 2016-02-06 19:56:00
Программа кодирования : mkvmerge v5.9.0 ('On The Loose') built on Dec 15 2012 16:39:58
Библиотека кодирования : libebml v1.3.0 + libmatroska v1.4.0

Видео
Идентификатор : 1
Формат : AVC
Формат/Информация : Advanced Video Codec
Профиль формата : High@L4.1
Параметр CABAC формата : Да
Параметр ReFrames формата : 10 кадров
Идентификатор кодека : V_MPEG4/ISO/AVC
Продолжительность : 1 ч. 40 м.
Битрейт : 2194 Кбит/сек
Ширина : 1152 пикселя
Высота : 480 пикселей
Соотношение сторон : 2,40:1
Режим частоты кадров : Постоянный
Частота кадров : 23,976 кадра/сек
Цветовое пространство : YUV
Субдискретизация насыщенности : 4:2:0
Битовая глубина : 8 бит
Тип развёртки : Прогрессивная
Бит/(Пиксели*Кадры) : 0.165
Размер потока : 1,51 Гбайт (71%)
Заголовок : potroks
Библиотека кодирования : x264 core 146 r2538 121396c
Настройки программы : cabac=1 / ref=10 / deblock=1:-2:-2 / analyse=0x3:0x113 / me=umh / subme=11 / psy=1 / psy_rd=1.00:0.05 / mixed_ref=1 / me_range=48 / chroma_me=1 / trellis=2 / 8x8dct=1 / cqm=0 / deadzone=21,11 / fast_pskip=0 / chroma_qp_offset=-3 / threads=9 / lookahead_threads=2 / sliced_threads=0 / nr=0 / decimate=0 / interlaced=0 / bluray_compat=0 / constrained_intra=0 / bframes=11 / b_pyramid=2 / b_adapt=2 / b_bias=0 / direct=3 / weightb=1 / open_gop=0 / weightp=2 / keyint=240 / keyint_min=23 / scenecut=40 / intra_refresh=0 / rc_lookahead=60 / rc=2pass / mbtree=0 / bitrate=2194 / ratetol=1.0 / qcomp=0.70 / qpmin=0 / qpmax=69 / qpstep=4 / cplxblur=20.0 / qblur=0.5 / vbv_maxrate=14000 / vbv_bufsize=14000 / nal_hrd=none / filler=0 / ip_ratio=1.40 / pb_ratio=1.30 / aq=1:0.80
Язык : English
Default : Да
Forced : Нет

Аудио #1
Идентификатор : 2
Формат : AC-3
Формат/Информация : Audio Coding 3
Расширение режима : CM (complete main)
Параметр Endianness формата : Big
Идентификатор кодека : A_AC3
Продолжительность : 1 ч. 40 м.
Вид битрейта : Постоянный
Битрейт : 384 Кбит/сек
Каналы : 6 каналов
Расположение каналов : Front: L C R, Side: L R, LFE
Частота : 48,0 КГц
Метод сжатия : С потерями
Размер потока : 277 Мбайт (13%)
Заголовок : Dub | DD 5.1 @ 384 kbps - NTV+
Язык : Russian
Default : Да
Forced : Нет

Аудио #2
Идентификатор : 3
Формат : AC-3
Формат/Информация : Audio Coding 3
Расширение режима : CM (complete main)
Параметр Endianness формата : Big
Идентификатор кодека : A_AC3
Продолжительность : 1 ч. 40 м.
Вид битрейта : Постоянный
Битрейт : 448 Кбит/сек
Каналы : 6 каналов
Расположение каналов : Front: L C R, Side: L R, LFE
Частота : 48,0 КГц
Метод сжатия : С потерями
Размер потока : 324 Мбайт (15%)
Заголовок : Original | DD 5.1 @ 448 kbps
Язык : English
Default : Нет
Forced : Нет

Текст #1
Идентификатор : 4
Формат : UTF-8
Идентификатор кодека : S_TEXT/UTF8
Идентификатор кодека/Информация : UTF-8 Plain Text
Заголовок : Forced
Язык : English
Default : Нет
Forced : Нет

Текст #2
Идентификатор : 5
Формат : UTF-8
Идентификатор кодека : S_TEXT/UTF8
Идентификатор кодека/Информация : UTF-8 Plain Text
Заголовок : Full
Язык : English
Default : Нет
Forced : Нет

Текст #3
Идентификатор : 6
Формат : UTF-8
Идентификатор кодека : S_TEXT/UTF8
Идентификатор кодека/Информация : UTF-8 Plain Text
Заголовок : SDH
Язык : English
Default : Нет
Forced : Нет

Текст #4
Идентификатор : 7
Формат : UTF-8
Идентификатор кодека : S_TEXT/UTF8
Идентификатор кодека/Информация : UTF-8 Plain Text
Заголовок : SDH-Colored
Язык : English
Default : Нет
Forced : Нет

Меню
00:00:00.000 : en:00:00:00.000
00:04:21.386 : en:00:04:21.386
00:10:20.328 : en:00:10:20.328
00:17:42.395 : en:00:17:42.395
00:23:23.360 : en:00:23:23.360
00:31:49.950 : en:00:31:49.950
00:37:52.687 : en:00:37:52.687
00:44:25.246 : en:00:44:25.246
00:50:55.177 : en:00:50:55.177
00:55:28.659 : en:00:55:28.659
01:01:41.239 : en:01:01:41.239
01:10:27.348 : en:01:10:27.348
01:16:13.736 : en:01:16:13.736
01:23:25.125 : en:01:23:25.125
01:30:54.366 : en:01:30:54.366
01:36:11.683 : en:01:36:11.683

pb.wtf



Скачать Шеф Адам Джонс через торрент http://i75.fastpic.ru/big/2016/0206/bd/6a6f90cc9eda8d0c0a8d7078cdc348bd.png Скачать фильм Шеф Адам Джонс через торрент бесплантно в хорошем качестве Описание: В центре сюжета - история некогда знаменитого шеф-повара, который из-за своего пагубного пристрастия теряет собственный ресторан ... 9.8 10 12
Info! Золотая раздача, скачанное не засчитывается.
Торрент: Зарегистрирован [2016-02-06 20:10] · скачан: 903 раз
Статус: √ проверено
Размер: 2.13 GB
Как cкачать? Как скачать Шеф Адам Джонс через торрент | qTorrent

% Раздел Тема Автор DL S | L
Фильмы [HD 720p, 1080p] (Хороший звук DUB, MVO) [ 9.91 GB ] Шеф Адам Джонс / Burnt [2015 BDRip 1080p by msltel] DUB msltel Скачать
1 | 0
Фильмы [HD 720p, 1080p] (Хороший звук DUB, MVO) [ 3.36 GB ] Шеф Адам Джонс / Burnt [2015 BDRip 720p by msltel] DUB msltel Скачать
1 | 0
Фильмы 2015 [DVDrip, WEB-DLRip, HDrip] [ 1.46 GB ] Шеф Адам Джонс / Burnt [2015 BDRip] - [] Twi7ter Скачать
1 | 0
Фильмы (Blu-ray, BD-Remux, HDDVD) [ 18.84 GB ] Шеф Адам Джонс / Burnt Gifts [2015 Blu-Ray 1080p] RUS Transfer / Russian Mafia Скачать
1 | 0
Фильмы 2015 [DVDrip, WEB-DLRip, HDrip] [ 1.42 GB ] Шеф Адам Джонс / Burnt [2015 BDRip] ] Twi7ter Скачать
1 | 0
Фильмы 2015 [DVDrip, WEB-DLRip, HDrip] [ 2.02 GB ] Шеф Адам Джонс / Burnt [2015 HDRip ""] coc900 Скачать
1 | 0
Фильмы 2015 [DVDrip, WEB-DLRip, HDrip] [ 1.42 GB ] Шеф Адам Джонс / Burnt [2015 BDRip-AVC] Dub [НТВ potroks Скачать
1 | 0

28-11-2019 20:33  

Отключить всю рекламу на сайте

07-02-2016 20:47 Шеф Адам Джонс Скачать торрент  

Довольно не плохой фильм.pb.wtf



24-03-2016 19:59 Шеф Адам Джонс Скачать торрент  

Да, фильм неплохой. Но не впечатляет. Такое чувство, что чего-то не хватает. То ли глубины раскрытия образов, то ли сюжетных линий. Актеры справились на ура. Твердая четверочка.pb.wtf



    Дорогой пользователь! Огромная просьба, поблагодарите релизера, оцените раздачу и оставьте свои комментарий, если Вы скачали Шеф Адам Джонс через торрент бесплатно! Внесите свою лепту в развитие PiratBit!
    Комментировать посты могут только пользователи прошедшие не сложную регистрацию
    Показать сообщения:    

    Шеф Адам Джонс через торрент
    Скачать бесплатно Шеф Адам Джонс
    Шеф Адам Джонс скачать торрент
    Шеф Адам Джонс смотреть онлайн
    Cкачать фильм Шеф Адам Джонс бесплатно
    Шеф Адам Джонс скачать торрент в хорошем качестве
    Шеф Адам Джонс смотреть онлайн бесплатно в хорошем качестве


    Вы не можете начинать темы
    Вы не можете отвечать на сообщения
    Вы не можете редактировать свои сообщения
    Вы не можете удалять свои сообщения
    Вы не можете голосовать в опросах
    Вы не можете прикреплять файлы к сообщениям
    Вы можете скачивать файлы