Ссылка на приватное зеркало нашего сайта всего за 1$. Внимание количество ограничено!!!

2 сезон

iTunes

1 сезон

1

iTunes

iTunes

iTunes

1 сезон

RePack

30

ИГРА 18+

pack

ВАЖНО

!!Акция!!

Alien_RageХит недели

RePack

MK11
pack

Забери бонус

RePack

jed

!!Акция!!

Alien_Rage

RePack

fifa19

RePack

Assassins Creed: Odyssey

RePack

NEED FOR SPEED™ PAYBACK

4 сезон

9 сезон

Бесстыжие 9 сезон

Все сериалы

все сериалы на PB.wtf

RePack

FAR CRY 5
  

Ищу мужчину / Серии: 1-4 из 4 (Павел Игнатов) [2015, мелодрама, SATRip-AVC] pb.wtf

Ищу мужчину через торрент pb.wtf

Размер: 2.42 GB | Добавлен: 4 года 8 мес. назад | Торрент скачан:193 раза
Скачать  

07-02-2016 01:05 Ищу мужчину Скачать торрент  

Ищу мужчину




Год выпуска: 2015
Производство: Россия, Кинокомпания "Русское"
Жанр
: мелодрама
Продолжительность: 00:42:00
Субтитры: нет




Режиссёр:Павел Игнатов



В ролях: Мария Куликова, Константин Соловьёв, Елена Симонова, Егор Клинаев, Александр Наумов, Иван Оранский, Вера Журавлева (II), Александр Пашков, Евгений Кулик, Евгений Смирнов-Иваницкий, Ольга Чудакова, Сергей Генкин, Виталий Даушев, Карина Романюк





Описание:Ирина - молодая адвокатесса, которая кроме работы и воспитания дорогого сыночка больше ничем не занимается и не хочет. Она давно живет без отношений с мужчинами, в которых разочаровалась и о которых слышать и не хочет. Мама всячески убеждает дочь наконец ответить взаимностью хотя бы кому-то из многочисленных поклонников. Ирина же упорно игнорирует советы мамы и знаки внимания от вполне приличных кавалеров. Все кардинально меняется во время празднования дня рождения Ольги, где Ирина знакомится с очень интересным и не похожим на других Валентином ...








Качество: SATRip-AVC
Формат: MKV
Видео кодек: H.264
Аудио кодек: AC3
Видео: MPEG-4 AVC, 720х400,25fps,~1893 Кбит/сек,Bits/Pixel 0.236
Аудио: AC3, 48 kHz, ~192 Kbps, 2 канала



Общее
Уникальный идентификатор : 238686109913543361700035018351357491442 (0xB39145CBAE6816E384CD2FEF155878F2)
Полное имя : E:\Ищу мужчину\Ищу мужчину_01 серия rip by_Aleksan55.mkv
Формат : Matroska
Версия формата : Version 2
Размер файла : 569 Мбайт
Продолжительность : 42 м.
Общий поток : 1893 Кбит/сек
Дата кодирования : UTC 2016-02-06 16:31:45
Программа кодирования : mkvmerge v7.8.0 ('River Man') 32bit built on Apr 3 2015 12:11:22
Библиотека кодирования : libebml v1.3.1 + libmatroska v1.4.2

Видео
Идентификатор : 1
Формат : AVC
Формат/Информация : Advanced Video Codec
Профиль формата : High@L4.1
Параметр CABAC формата : Да
Параметр ReFrames формата : 11 кадров
Идентификатор кодека : V_MPEG4/ISO/AVC
Продолжительность : 42 м.
Битрейт : 1700 Кбит/сек
Ширина : 720 пикселей
Высота : 400 пикселей
Соотношение сторон : 16:9
Режим частоты кадров : Постоянный
Частота кадров : 25,000 кадров/сек
Цветовое пространство : YUV
Субдискретизация насыщенности : 4:2:0
Битовая глубина : 8 бит
Тип развёртки : Прогрессивная
Бит/(Пиксели*Кадры) : 0.236
Размер потока : 500 Мбайт (88%)
Библиотека кодирования : x264 core 146 r2538 121396c
Настройки программы : cabac=1 / ref=11 / deblock=1:-2:-2 / analyse=0x3:0x113 / me=umh / subme=11 / psy=1 / psy_rd=1.00:0.25 / mixed_ref=0 / me_range=32 / chroma_me=1 / trellis=2 / 8x8dct=1 / cqm=0 / deadzone=6,6 / fast_pskip=1 / chroma_qp_offset=-4 / threads=2 / lookahead_threads=4 / sliced_threads=0 / nr=0 / decimate=0 / interlaced=0 / bluray_compat=0 / constrained_intra=0 / bframes=11 / b_pyramid=2 / b_adapt=1 / b_bias=0 / direct=3 / weightb=1 / open_gop=0 / weightp=2 / keyint=250 / keyint_min=25 / scenecut=40 / intra_refresh=0 / rc_lookahead=40 / rc=2pass / mbtree=1 / bitrate=1700 / ratetol=1.0 / qcomp=0.80 / qpmin=0 / qpmax=69 / qpstep=4 / cplxblur=20.0 / qblur=0.5 / ip_ratio=1.10 / aq=1:0.50
Default : Да
Forced : Нет
Цветовой диапазон : Limited
Основные цвета : BT.601 PAL
Характеристики трансфера : BT.470 System B, BT.470 System G
Коэффициенты матрицы : BT.601

Аудио
Идентификатор : 2
Формат : AC-3
Формат/Информация : Audio Coding 3
Расширение режима : CM (complete main)
Параметр Endianness формата : Big
Идентификатор кодека : A_AC3
Продолжительность : 42 м.
Вид битрейта : Постоянный
Битрейт : 192 Кбит/сек
Каналы : 2 канала
Расположение каналов : Front: L R
Частота : 48,0 КГц
Метод сжатия : С потерями
Размер потока : 57,7 Мбайт (10%)
Default : Да
Forced : Нет


Рекламы нет.pb.wtf



Скачать Ищу мужчину через торрент http://s012.radikal.ru/i320/1602/8b/d30115510f0d.jpg Скачать фильм Ищу мужчину через торрент бесплантно в хорошем качестве Описание:Ирина - молодая адвокатесса, которая кроме работы и воспитания дорогого сыночка больше ничем не занимается и не хочет. Она давно ... 10 10 6
Торрент: Зарегистрирован [2016-02-07 01:05] · скачан: 193 раз
Статус: √ проверено
Размер: 2.42 GB
Как cкачать? Как скачать Ищу мужчину через торрент | qTorrent

28-11-2019 20:33  

Отключить всю рекламу на сайте

    Дорогой пользователь! Огромная просьба, поблагодарите релизера, оцените раздачу и оставьте свои комментарий, если Вы скачали Ищу мужчину через торрент бесплатно! Внесите свою лепту в развитие PiratBit!
    Комментировать посты могут только пользователи прошедшие не сложную регистрацию
    Показать сообщения:    

    Ищу мужчину через торрент
    Скачать бесплатно Ищу мужчину
    Ищу мужчину скачать торрент
    Ищу мужчину смотреть онлайн
    Cкачать фильм Ищу мужчину бесплатно
    Ищу мужчину скачать торрент в хорошем качестве
    Ищу мужчину смотреть онлайн бесплатно в хорошем качестве


    Вы не можете начинать темы
    Вы не можете отвечать на сообщения
    Вы не можете редактировать свои сообщения
    Вы не можете удалять свои сообщения
    Вы не можете голосовать в опросах
    Вы не можете прикреплять файлы к сообщениям
    Вы можете скачивать файлы