Ссылка на приватное зеркало всего за 1$. Внимание количество ограничено!!!

iTunes

iTunes

iTunes

1

iTunes

iTunes

iTunes

iTunes

iTunes

30
pack

$ от Little Big

ВАЖНО

!!Акция!!

Alien_RageХит недели

RePack

Resident Evil 21

ИГРА 18+

pack

RePack

jed

!!Акция!!

Alien_Rage

RePack

fifa19

RePack

Assassins Creed: Odyssey

RePack

NEED FOR SPEED™ PAYBACK

4 сезон

9 сезон

Бесстыжие 9 сезон

Все сериалы

все сериалы на PB.wtf

RePack

FAR CRY 5
  

Лазерная команда / Lazer Team (Matt Hullum) [2015, США, фантастика, боевик, комедия, WEB-DL 1080p, Любительский (двухголосый) [Parovoz Production] (Раздача без рекламы) pb.wtf

Лазерная команда через торрент pb.wtf

Размер: 2.88 GB | Добавлен: 4 года 5 мес. назад | Торрент скачан:401 раз
Скачать  

07-02-2016 07:04 Лазерная команда Скачать торрент  

Лазерная команда / Lazer Team
«Человечеству в самый трудный час нужна наша яркая команда»


  • Год выпуска: 2015
  • Страна: США
  • Жанр: фантастика, боевик, комедия
  • Продолжительность: 01:42:12
  • Перевод: Любительский (двухголосый)[Parovoz Production]
  • Режиссер: Matt Hullum
  • В ролях:

    Алан Ричсон (Adam), Ирина Воронина (Female Scientist), Колтон Данн (Herman), Александрия ДеБерри (Mindy), Гэвин Фри (Woody), Бёрни Бёрнс (Hagan), Джоэль Хейман (Reporter), Майкл Джонс (Zach), Джереми Ст. Джеймс (Bean), Далтон Е. Грэй (Young Adult Adam), Lindsay Jones (Cheerleader), Джонни Уолтер (Murdoch)


  • Из космоса поступает сообщение, тщательно закодированное. Сигнал гласит, что планете Земля угрожает опасность. Скоро на её поверхность прибудут пришельцы, и они явно не настроены дружелюбно по отношению к людям. По стечению обстоятельств, компания из 4 очень разных друзей станет свидетелями крушения космического корабля. На борту ребята находят части специального снаряжения. Каждый из героев с нетерпением примеряет на себя загадочные объекты. Так парни становятся обладателями особых приспособлений в виде шлема, специальной рукоятки, лазерного протектора для кисти и конечно одной пары «обуви».
    Разобрав удивительное добро и поделив между собой, молодые люди не думали, что привлекут внимание правительства. Теперь им предстоит сверхсложная задача совершить контакт с инопланетной расой и нанести ответный удар в случае нападения. Тренировать всю компанию принимается Адам - настоящий профессионал военного дела. Он должен наставить недалёких обладателей космического снаряжения на путь защиты страны, научив особенностям пользования «инопланетными вещами». По мере тренировок ребята ощущают сплочение, и узнают больше о свойствах того снаряжения, что они раздобыли на корабле.
  • Рейтинг:



  • Качество: WEB-DL 1080p
  • Формат: :MKV
  • Видео кодек: AVC
  • Аудио кодек: AC3
  • Видео: 1920x804 (2.40:1), 3765 kbps, 23,976 fps, 0,102 bpp
  • Аудио: русский / 2.0 / 48 kHz / 192 kbps / 16 bit |[Parovoz Production]|
  • Релиз от: GEKADOL

    Код:

    General
    Unique ID                                : 236763313483848137360966122706810001001 (0xB21EF49CC49604E594B7EA087D195669)
    Complete name                            : H:\Lazernya.komanda.2015.L2.WEB-DL.1080p.mkv
    Format                                   : Matroska
    Format version                           : Version 4 / Version 2
    File size                                : 2.88 GiB
    Duration                                 : 1h 42mn
    Overall bit rate                         : 4 038 Kbps
    Encoded date                             : UTC 2016-02-06 17:12:42
    Writing application                      : mkvmerge v8.3.0 ('Over the Horizon') 64bit
    Writing library                          : libebml v1.3.1 + libmatroska v1.4.2
    DURATION                                 : 01:42:12.841000000
    NUMBER_OF_FRAMES                         : 191646
    NUMBER_OF_BYTES                          : 147184128
    _STATISTICS_WRITING_APP                  : mkvmerge v8.3.0 ('Over the Horizon') 64bit
    _STATISTICS_WRITING_DATE_UTC             : 2016-02-06 17:12:42
    _STATISTICS_TAGS                         : BPS DURATION NUMBER_OF_FRAMES NUMBER_OF_BYTES

    Video
    ID                                       : 1
    Format                                   : AVC
    Format/Info                              : Advanced Video Codec
    Format profile                           : High@L4.1
    Format settings, CABAC                   : Yes
    Format settings, ReFrames                : 4 frames
    Codec ID                                 : V_MPEG4/ISO/AVC
    Duration                                 : 1h 42mn
    Bit rate                                 : 3 765 Kbps
    Width                                    : 1 920 pixels
    Height                                   : 804 pixels
    Display aspect ratio                     : 2.40:1
    Frame rate                               : 23.976 fps
    Color space                              : YUV
    Chroma subsampling                       : 4:2:0
    Bit depth                                : 8 bits
    Scan type                                : Progressive
    Bits/(Pixel*Frame)                       : 0.102
    Stream size                              : 2.69 GiB (93%)
    Language                                 : English
    Default                                  : Yes
    Forced                                   : No
    DURATION                                 : 01:42:12.880000000
    NUMBER_OF_FRAMES                         : 146991
    NUMBER_OF_BYTES                          : 2946815522
    _STATISTICS_WRITING_APP                  : mkvmerge v8.3.0 ('Over the Horizon') 64bit
    _STATISTICS_WRITING_DATE_UTC             : 2016-02-06 17:12:42
    _STATISTICS_TAGS                         : BPS DURATION NUMBER_OF_FRAMES NUMBER_OF_BYTES
    Color primaries                          : BT.709-5, BT.1361, IEC 61966-2-4, SMPTE RP177
    Transfer characteristics                 : BT.709-5, BT.1361
    Matrix coefficients                      : BT.709-5, BT.1361, IEC 61966-2-4 709, SMPTE RP177

    Audio
    ID                                       : 2
    Format                                   : AC-3
    Format/Info                              : Audio Coding 3
    Mode extension                           : CM (complete main)
    Codec ID                                 : A_AC3
    Duration                                 : 1h 42mn
    Bit rate mode                            : Constant
    Bit rate                                 : 192 Kbps
    Channel(s)                               : 2 channels
    Channel positions                        : Front: L R
    Sampling rate                            : 48.0 KHz
    Bit depth                                : 16 bits
    Compression mode                         : Lossy
    Delay relative to video                  : 10ms
    Stream size                              : 140 MiB (5%)
    Language                                 : Russian
    Default                                  : Yes
    Forced                                   : No




    Скриншоты:



    pb.wtf



  • Скачать Лазерная команда через торрент http://i75.fastpic.ru/big/2016/0207/4b/c5ac1e4d8564bbb4eb616c1edadbaf4b.jpg Скачать фильм Лазерная команда через торрент бесплантно в хорошем качестве qw.png Из космоса поступает сообщение, тщательно закодированное. Сигнал гласит, что планете Земля угрожает опасность. Скоро на её ... 8.9 10 11
    Info! Золотая раздача, скачанное не засчитывается.
    Торрент: Зарегистрирован [2016-02-07 07:04] · скачан: 401 раз
    Статус: T временная
    Размер: 2.88 GB
    Как cкачать? Как скачать Лазерная команда через торрент | qTorrent

    % Раздел Тема Автор DL S | L
    T Релизы по Парсеру [Игры, Сериалы и Фильмы и другое...] [ 7.77 GB ] Лазерная команда / Lazer Team BDRip 1080p / MVO Ворон Скачать
    1 | 0
    T Релизы по Парсеру [Игры, Сериалы и Фильмы и другое...] [ 1.46 GB ] Лазерная команда / Lazer Team HDRip / MVO Ворон Скачать
    1 | 0
    T Фильмы 2015 (Звук TS, Cam, VO, DVO) [ 1.45 GB ] Лазерная команда / Lazer Team [2015 WEB-DLRip] DVO Ворон Скачать
    2 | 0

    28-11-2019 20:33  

    Отключить всю рекламу на сайте

    07-02-2016 07:22 Лазерная команда Скачать торрент  

    Забавное кино, шуточки не совсем тупые и много самоиронии :) В общем как комедия - нормуль !pb.wtf



    07-02-2016 15:51 Лазерная команда Скачать торрент  

    а мне не понравилось, задумка хорошая можно было снять хорошую комедию, а так пару смешных моментов, в общем можно посмотреть один раз.pb.wtf



      Дорогой пользователь! Огромная просьба, поблагодарите релизера, оцените раздачу и оставьте свои комментарий, если Вы скачали Лазерная команда через торрент бесплатно! Внесите свою лепту в развитие PiratBit!
      Комментировать посты могут только пользователи прошедшие не сложную регистрацию
      Показать сообщения:    

      Лазерная команда через торрент
      Скачать бесплатно Лазерная команда
      Лазерная команда скачать торрент
      Лазерная команда смотреть онлайн
      Cкачать фильм Лазерная команда бесплатно
      Лазерная команда скачать торрент в хорошем качестве
      Лазерная команда смотреть онлайн бесплатно в хорошем качестве


      Вы не можете начинать темы
      Вы не можете отвечать на сообщения
      Вы не можете редактировать свои сообщения
      Вы не можете удалять свои сообщения
      Вы не можете голосовать в опросах
      Вы не можете прикреплять файлы к сообщениям
      Вы можете скачивать файлы