Ссылка на приватное зеркало нашего сайта всего за 1$. Внимание количество ограничено!!!

2 сезон

iTunes

1 сезон

1

iTunes

iTunes

iTunes

1 сезон

RePack

30

ИГРА 18+

pack

ВАЖНО

!!Акция!!

Alien_RageХит недели

RePack

MK11
pack

Забери бонус

RePack

jed

!!Акция!!

Alien_Rage

RePack

fifa19

RePack

Assassins Creed: Odyssey

RePack

NEED FOR SPEED™ PAYBACK

4 сезон

9 сезон

Бесстыжие 9 сезон

Все сериалы

все сериалы на PB.wtf

RePack

FAR CRY 5
  

Коготь из Мавритании / Серии: 1-4 из 4 (Наталья Хлопецкая) [2015, детектив,триллер, SATRip-AVC] pb.wtf

Коготь из Мавритании через торрент pb.wtf

Размер: 2.73 GB | Добавлен: 4 года 8 мес. назад | Торрент скачан:337 раз
Скачать  

21-01-2016 05:09 Коготь из Мавритании Скачать торрент  

Коготь из Мавритании




Год выпуска: 2015
Производство: Россия, «Марс Медиа»
Жанр: детектив, триллер
Продолжительность: 00:45:00
Субтитры: нет




Режиссёр: Наталья Хлопецкая



В ролях: Александра Тюфтей, Сергей Жарков, Илья Древнов, Сергей Галахов, Сергей Петров (II), Сергей Кизас, Елена Любимова, Ксения Радченко (II), Вера Воронкова





Описание: Как часто в криминальной хронике встречаются сообщения, что серийного маньяка пытались поймать «на живца»? Теперь представьте, как юная девушка, работающая такой «приманкой», неожиданно пропадает из зоны контроля правоохранительных органов и остаётся один на один с безжалостным убийцей.









Качество: SATRip-AVC
Формат: MKV
Видео кодек: H.264
Аудио кодек: AC3
Видео: MPEG-4 AVC, 704х400, 25fps, ~1978 Кбит/сек, Bits/Pixel 0.281
Аудио: AC3, 48 kHz, ~192 Kbps, 2 канала



Общее
Уникальный идентификатор : 242212665520593956390769145154076284092 (0xB638766941D283C2990EC71F1A4614BC)
Полное имя : F:\Коготь из Мавритании\Коготь из Мавритании_01 серия rip by_Aleksan55.mkv
Формат : Matroska
Версия формата : Version 2
Размер файла : 700 Мбайт
Продолжительность : 45 м.
Общий поток : 2172 Кбит/сек
Дата кодирования : UTC 2016-01-20 21:38:52
Программа кодирования : mkvmerge v7.8.0 ('River Man') 32bit built on Apr 3 2015 12:11:22
Библиотека кодирования : libebml v1.3.1 + libmatroska v1.4.2

Видео
Идентификатор : 1
Формат : AVC
Формат/Информация : Advanced Video Codec
Профиль формата : High@L4.1
Параметр CABAC формата : Да
Параметр ReFrames формата : 11 кадров
Идентификатор кодека : V_MPEG4/ISO/AVC
Продолжительность : 45 м.
Битрейт : 1978 Кбит/сек
Ширина : 704 пикселя
Высота : 400 пикселей
Соотношение сторон : 16:9
Режим частоты кадров : Постоянный
Частота кадров : 25,000 кадров/сек
Цветовое пространство : YUV
Субдискретизация насыщенности : 4:2:0
Битовая глубина : 8 бит
Тип развёртки : Прогрессивная
Бит/(Пиксели*Кадры) : 0.281
Размер потока : 624 Мбайт (89%)
Библиотека кодирования : x264 core 146 r2538 121396c
Настройки программы : cabac=1 / ref=11 / deblock=1:-3:-3 / analyse=0x3:0x133 / me=umh / subme=11 / psy=1 / psy_rd=1.00:0.15 / mixed_ref=0 / me_range=32 / chroma_me=1 / trellis=2 / 8x8dct=1 / cqm=0 / deadzone=21,11 / fast_pskip=1 / chroma_qp_offset=-3 / threads=6 / lookahead_threads=1 / sliced_threads=0 / nr=0 / decimate=1 / interlaced=0 / bluray_compat=0 / constrained_intra=0 / bframes=11 / b_pyramid=2 / b_adapt=1 / b_bias=0 / direct=3 / weightb=1 / open_gop=0 / weightp=2 / keyint=250 / keyint_min=25 / scenecut=40 / intra_refresh=0 / rc_lookahead=40 / rc=2pass / mbtree=1 / bitrate=1978 / ratetol=1.0 / qcomp=0.60 / qpmin=0 / qpmax=69 / qpstep=4 / cplxblur=20.0 / qblur=0.5 / ip_ratio=1.40 / aq=1:1.50
Default : Да
Forced : Нет
Цветовой диапазон : Limited
Основные цвета : BT.601 PAL
Характеристики трансфера : BT.470 System B, BT.470 System G
Коэффициенты матрицы : BT.601

Аудио
Идентификатор : 2
Формат : AC-3
Формат/Информация : Audio Coding 3
Расширение режима : CM (complete main)
Параметр Endianness формата : Big
Идентификатор кодека : A_AC3
Продолжительность : 45 м.
Вид битрейта : Постоянный
Битрейт : 192 Кбит/сек
Каналы : 2 канала
Расположение каналов : Front: L R
Частота : 48,0 КГц
Метод сжатия : С потерями
Размер потока : 61,9 Мбайт (9%)
Default : Да
Forced : Нет
Внимание! Раздача ведётся путём добавления новых серий; при каждом добавлении создаётся новый торрент.
Чтобы начать докачку новой серии, пользователям необходимо сделать следующее:
1. Остановить скачивание;
2. Удалить старый торрент у себя из клиента (старые серии удалять не надо);
3. Скачать новый торрент и запустить его у себя в клиенте вместо старого, при этом указать клиенту путь в старую папку куда и должно происходить скачивание новых серий. Ваш клиент при этом должен произвести хеширование (проверку) старой папки и будет докачивать только те серии, которых у вас ещё нет. Старые серии при этом не удаляются, а продолжают раздаваться! Eсли вы уже удалили старые серии, то предотвратить повторную закачку старых серий можно, отжав галочку в соответствующих местах при запуске нового торрента.


Рекламы нет.Добавлена 3-4 серия.pb.wtf



Скачать Коготь из Мавритании через торрент http://s015.radikal.ru/i333/1601/21/fcb98263196e.jpg Скачать фильм Коготь из Мавритании через торрент бесплантно в хорошем качестве Описание: Как часто в криминальной хронике встречаются сообщения, что серийного маньяка пытались поймать «на живца»? Теперь представьте, ... 9.8 10 9
Торрент: Зарегистрирован [2016-02-07 11:28] · скачан: 337 раз
Статус: √ проверено
Размер: 2.73 GB
Как cкачать? Как скачать Коготь из Мавритании через торрент | qTorrent

% Раздел Тема Автор DL S | L
Наши сериалы [ 1.91 GB ] Коготь из Мавритании-2 / Серии: 1-4 из 4 [2016 SATRip-AVC] aleksan55 Скачать
1 | 0

28-11-2019 20:33  

Отключить всю рекламу на сайте

    Дорогой пользователь! Огромная просьба, поблагодарите релизера, оцените раздачу и оставьте свои комментарий, если Вы скачали Коготь из Мавритании через торрент бесплатно! Внесите свою лепту в развитие PiratBit!
    Комментировать посты могут только пользователи прошедшие не сложную регистрацию
    Показать сообщения:    

    Коготь из Мавритании через торрент
    Скачать бесплатно Коготь из Мавритании
    Коготь из Мавритании скачать торрент
    Коготь из Мавритании смотреть онлайн
    Cкачать фильм Коготь из Мавритании бесплатно
    Коготь из Мавритании скачать торрент в хорошем качестве
    Коготь из Мавритании смотреть онлайн бесплатно в хорошем качестве


    Вы не можете начинать темы
    Вы не можете отвечать на сообщения
    Вы не можете редактировать свои сообщения
    Вы не можете удалять свои сообщения
    Вы не можете голосовать в опросах
    Вы не можете прикреплять файлы к сообщениям
    Вы можете скачивать файлы