Ссылка на приватное зеркало всего за 1$. Внимание количество ограничено!!!

iTunes

iTunes

iTunes

1

iTunes

iTunes

iTunes

iTunes

iTunes

30
pack

$ от Little Big

ВАЖНО

!!Акция!!

Alien_RageХит недели

RePack

Resident Evil 21

ИГРА 18+

pack

RePack

jed

!!Акция!!

Alien_Rage

RePack

fifa19

RePack

Assassins Creed: Odyssey

RePack

NEED FOR SPEED™ PAYBACK

4 сезон

9 сезон

Бесстыжие 9 сезон

Все сериалы

все сериалы на PB.wtf

RePack

FAR CRY 5
  

Он – дракон (Индар Джендубаев) [2015 г., фэнтези, HDRip, Оригинал "Лицензия"] pb.wtf

Он – дракон через торрент pb.wtf

Размер: 2.19 GB | Добавлен: 4 года 3 мес. назад | Торрент скачан:554 раза
Скачать  

07-02-2016 18:24 Он – дракон Скачать торрент  

Он – дракон
Год выпуска: 2015
Страна: Россия / Bazelevs Production, Mindstream Productions
Жанр: фэнтези
Продолжительность: 01:47:04
Перевод: Оригинал (Лицензия)

Режиссер: Индар Джендубаев

IMDB 5.60 (216)


В ролях: Мария Поезжаева, Матвей Лыков, Станислав Любшин, Иева Андреевайте, Петр Романов, Андрей Лебединский, Марта Тимофеева, Иво Господинов, Егор Зубарчук, Виктория Рунцова

Описание: В разгар свадьбы княжну Мирославу похищает дракон, унося в свой замок на острове. В прошлом остались родные, жених, теперь только каменный плен в компании прекрасного Армана... но кто он и как оказался на острове? Мира поймет это слишком поздно: любовь к нему, человеку-дракону, откроет ей горькую истину — любить страшно.

Качество: HDRip
Формат: AVI
Видео кодек: XviD
Аудио кодек: AC3
Видео: MPEG4, XviD, 720x304 (2.35:1), 24.000 fps, 2 471 Kbps (0.470 bit/pixel)
Аудио: AC-3, 48.0 KHz, 6 ch, 448 Kbps, CBR
скриншот   скриншот   скриншот   скриншот   скриншот   скриншот  

Общее
Полное имя : F:\кино\Он – дракон.2015.HDRip.avi
Формат : AVI
Формат/Информация : Audio Video Interleave
Профиль формата : OpenDML
Размер файла : 2,19 Гбайт
Продолжительность : 1 ч. 47 м.
Общий поток : 2931 Кбит/сек
Программа кодирования : VirtualDubMod 1.5.10.3 | www.virtualdub-fr.org || (build 2550/release)
Библиотека кодирования : VirtualDubMod build 2550/release

Видео
Идентификатор : 0
Формат : MPEG-4 Visual
Профиль формата : Advanced Simple@L5
Параметр BVOP формата : 2
Параметр QPel формата : Нет
Параметр GMC формата : Без точки перехода
Параметр матрицы формата : Default (H.263)
Идентификатор кодека : XVID
Идентификатор кодека/Подсказка : XviD
Продолжительность : 1 ч. 47 м.
Битрейт : 2471 Кбит/сек
Ширина : 720 пикселей
Высота : 304 пикселя
Соотношение сторон : 2,35:1
Частота кадров : 24,000 кадра/сек
Цветовое пространство : YUV
Субдискретизация насыщенности : 4:2:0
Битовая глубина : 8 бит
Тип развёртки : Прогрессивная
Метод сжатия : С потерями
Бит/(Пиксели*Кадры) : 0.470
Размер потока : 1,85 Гбайт (84%)
Библиотека кодирования : XviD 1.2.1 (UTC 2008-12-04)

Аудио
Идентификатор : 1
Формат : AC-3
Формат/Информация : Audio Coding 3
Расширение режима : CM (complete main)
Параметр Endianness формата : Big
Идентификатор кодека : 2000
Продолжительность : 1 ч. 47 м.
Вид битрейта : Постоянный
Битрейт : 448 Кбит/сек
Каналы : 6 каналов
Расположение каналов : Front: L C R, Side: L R, LFE
Частота : 48,0 КГц
Частота кадров : 31,250 кадров/сек (1536 spf)
Метод сжатия : С потерями
Размер потока : 343 Мбайт (15%)
Выравнивание : Разделение по промежуткам
Продолжительность промежутка : 42 мс. (1,00 видеокадр)
Время предзагрузки промежутка : 500 мс.

pb.wtf



Скачать Он – дракон через торрент http://pic.kartinco.top/images/11/pe7ot.jpg Скачать фильм Он – дракон через торрент бесплантно в хорошем качестве Описание: В разгар свадьбы княжну Мирославу похищает дракон, унося в свой замок на острове. В прошлом остались родные, жених, теперь только ... 10 10 9
Торрент: Зарегистрирован [2016-02-07 18:24] · скачан: 554 раз
Статус: √ проверено
Размер: 2.19 GB
Как cкачать? Как скачать Он – дракон через торрент | qTorrent

% Раздел Тема Автор DL S | L
Фильмы 2011 [ 1.38 GB ] Драконьи крестоносцы / Dragon Crusaders [2011 HDRip] MrKuzj Скачать
1 | 0
Иностранные мультфильмы [ 1.45 GB ] Как приручить дракона / How to Train Your Dragon [2010 мультфильм HDRip-AVC] от R.G. nICE Films Demonessa Скачать
37 | 0
Фильмы [HD 720p, 1080p] (Хороший звук DUB, MVO) [ 10.01 GB ] Девушка с татуировкой дракона / Män som hatar kvinnor [2009 BDRip 1080p] shuller Скачать
1 | 0
Фильмы [HD 720p, 1080p] (Хороший звук DUB, MVO) [ 8.52 GB ] Девушка с татуировкой дракона / The Girl with the Dragon Tattoo [2011 BDRip лицензия]Russian+Ukrainian ~Relizer~ Скачать
1 | 0
RPG [ 5.91 GB ] Divinity II. Кровь драконов [лицензияRURPG] Mitay98 Скачать
1 | 0
Фильмы 2011 [ 2.18 GB ] Девушка с татуировкой дракона / The Girl with the Dragon Tattoo [2011 HDRip лицензия] ~Relizer~ Скачать
1 | 0
Азиатские фильмы [ 1.46 GB ] Честь дракона / Tom yum goong / Revenge of the Warrior [2005 DVDRip] slav4i4ok Скачать
1 | 1

28-11-2019 20:33  

Отключить всю рекламу на сайте

    Дорогой пользователь! Огромная просьба, поблагодарите релизера, оцените раздачу и оставьте свои комментарий, если Вы скачали Он – дракон через торрент бесплатно! Внесите свою лепту в развитие PiratBit!
    Комментировать посты могут только пользователи прошедшие не сложную регистрацию
    Показать сообщения:    

    Он – дракон через торрент
    Скачать бесплатно Он – дракон
    Он – дракон скачать торрент
    Он – дракон смотреть онлайн
    Cкачать фильм Он – дракон бесплатно
    Он – дракон скачать торрент в хорошем качестве
    Он – дракон смотреть онлайн бесплатно в хорошем качестве


    Вы не можете начинать темы
    Вы не можете отвечать на сообщения
    Вы не можете редактировать свои сообщения
    Вы не можете удалять свои сообщения
    Вы не можете голосовать в опросах
    Вы не можете прикреплять файлы к сообщениям
    Вы можете скачивать файлы