Всегда рабочее зеркало без VPN и Proxy просто перед .vidak.icu напиши любое слово или цифру, Пример http://amdr.vidak.icu

MVO

Лицензия

1 сезон

1

1 сезон

iTunes

1 сезон

13

1 сезон

Deluxe

pack

Рекомендуем

Repack

30

ВАЖНО

RePack

MK11

RePack

jed

RePack

fifa19

RePack

RDR2

RePack

NEED FOR SPEED™ PAYBACK

Кинопоиск HD

6 сезон

 Острые козырьки 6 сезон

Все сериалы

все сериалы на PB.wtf

RePack

FAR CRY 5
  
Magnet ссылка

Легенды Крыма. Уроки Крымской войны (ООО "ЭсКаСи") [2015 г., документальный, военный, история, DVB, Русский] pb.wtf

Легенды Крыма. Уроки Крымской войны через торрент pb.wtf

Размер: 557 MB | Добавлен: 6 лет 4 мес. назад | Торрент скачан:90 раз
Смотреть онлайн Легенды Крыма. Уроки Крымской войны | Скачать    Ребята, помогите собрать деньги на оплату серверов!!!

08-02-2016 06:13 Легенды Крыма. Уроки Крымской войны Скачать торрент  

Легенды Крыма. Уроки Крымской войны

Год выпуска: 2015
Страна: Россия
Жанр: документальный, военный, история
Продолжительность: 00:25:55
Перевод: Не требуется Русский

Режиссер: ООО "ЭсКаСи"

Описание: Фильм расскажет о тех событиях, которые по сути предвосхитили геополитику 21 века. И большая их часть происходила именно в Крыму. Причиной войны явилось столкновение экономических и политических интересов ведущих мировых держав стран на Ближнем Востоке. Цели Англии и Франции состояли в том, чтобы усилить свое влияние, захватить новые рынки и колонии, установить контроль над Черноморскими проливами и оттеснить Россию от берегов Черного моря.

Качество: DVB
Формат: TS
Видео кодек: AVC
Аудио кодек: MP2
Видео: AVC, 720x576 (16:9), 25.000 fps, 2 661 Kbps (0.257 bit/pixel)
Аудио: MP2, 48.0 KHz, 2 ch, 192 Kbps, CBR

Код:

Формат                                   : MPEG-TS
Размер файла                             : 557 Мбайт
Продолжительность                        : 25 м.
Режим общего битрейта                    : Переменный
Общий поток                              : 3003 Кбит/сек

Видео
Идентификатор                            : 301 (0x12D)
Идентификатор меню                       : 1 (0x1)
Формат                                   : AVC
Формат/Информация                        : Advanced Video Codec
Профиль формата                          : [email protected]
Параметр CABAC формата                   : Да
Параметр ReFrames формата                : 3 кадра
Параметр GOP формата                     : M=4, N=28
Идентификатор кодека                     : 27
Продолжительность                        : 25 м.
Битрейт                                  : 2661 Кбит/сек
Ширина                                   : 720 пикселей
Высота                                   : 576 пикселей
Соотношение сторон                       : 16:9
Частота кадров                           : 25,000 кадров/сек
Стандарт вещания                         : Component
Цветовое пространство                    : YUV
Субдискретизация насыщенности            : 4:2:0
Битовая глубина                          : 8 бит
Тип развёртки                            : Чересстрочная
Метод сохранения типа развёртки          : Раздельные поля
Порядок развёртки                        : Верхнее поле первое
Бит/(Пиксели*Кадры)                      : 0.257
Размер потока                            : 493 Мбайт (89%)
Цветовой диапазон                        : Limited
Основные цвета                           : BT.601 PAL
Характеристики трансфера                 : BT.470 System B, BT.470 System G
Коэффициенты матрицы                     : BT.601

Аудио
Идентификатор                            : 302 (0x12E)
Идентификатор меню                       : 1 (0x1)
Формат                                   : MPEG Audio
Версия формата                           : Version 1
Профиль формата                          : Layer 2
Идентификатор кодека                     : 3
Продолжительность                        : 25 м.
Вид битрейта                             : Постоянный
Битрейт                                  : 192 Кбит/сек
Каналы                                   : 2 канала
Частота                                  : 48,0 КГц
Метод сжатия                             : С потерями
Размер потока                            : 35,6 Мбайт (6%)

pb.wtf



Скачать Легенды Крыма. Уроки Крымской войны через торрент http://i.imgur.com/fj7qFxL.png Скачать, смотреть онлайн Легенды Крыма. Уроки Крымской войны бесплантно в хорошем качестве Описание: Фильм расскажет о тех событиях, которые по сути предвосхитили геополитику 21 века. И большая их часть происходила именно в Крыму. ... 7 10 6
Торрент: Зарегистрирован [2016-02-08 06:13] · скачан: 90 раз
Статус: √ проверено
Размер: 557 MB
Как cкачать? Как скачать Легенды Крыма. Уроки Крымской войны через торрент | UTorrent

28-11-2019 20:33  

Отключить всю рекламу на сайте

    Дорогой пользователь! Огромная просьба, поблагодарите релизера, оцените раздачу и оставьте свои комментарий, если Вы скачали Легенды Крыма. Уроки Крымской войны через торрент бесплатно!
    Комментировать посты могут только пользователи прошедшие не сложную регистрацию
    Показать сообщения:    

    Легенды Крыма. Уроки Крымской войны через торрент
    Скачать бесплатно Легенды Крыма. Уроки Крымской войны
    Легенды Крыма. Уроки Крымской войны скачать торрент
    Легенды Крыма. Уроки Крымской войны смотреть онлайн
    Cкачать фильм Легенды Крыма. Уроки Крымской войны бесплатно
    Легенды Крыма. Уроки Крымской войны скачать торрент в хорошем качестве
    Легенды Крыма. Уроки Крымской войны смотреть онлайн бесплатно в хорошем качестве


    Вы не можете начинать темы
    Вы не можете отвечать на сообщения
    Вы не можете редактировать свои сообщения
    Вы не можете удалять свои сообщения
    Вы не можете голосовать в опросах
    Вы не можете прикреплять файлы к сообщениям
    Вы можете скачивать файлы