Ссылка на приватное зеркало нашего сайта всего за 1$. Внимание количество ограничено!!!

2 сезон

iTunes

1 сезон

1

iTunes

iTunes

iTunes

1 сезон

RePack

30

ИГРА 18+

pack

ВАЖНО

!!Акция!!

Alien_RageХит недели

RePack

MK11
pack

Забери бонус

RePack

jed

!!Акция!!

Alien_Rage

RePack

fifa19

RePack

Assassins Creed: Odyssey

RePack

NEED FOR SPEED™ PAYBACK

4 сезон

9 сезон

Бесстыжие 9 сезон

Все сериалы

все сериалы на PB.wtf

RePack

FAR CRY 5
  

Человек без прошлого / Сезон: 1 / Серии: 01-16 из 16 (Павел Игнатов) [2016, мелодрама, SATRip-AVC] pb.wtf

Человек без прошлого через торрент pb.wtf

Размер: 9.38 GB | Добавлен: 4 года 8 мес. назад | Торрент скачан:251 раз
Скачать  

08-02-2016 17:07 Человек без прошлого Скачать торрент  




Год выпуска: 2016
Производство: Россия, Платформа Кино по заказу НТВ
Жанр: криминал
Продолжительность: 00:44:00
Субтитры: нет




Режиссёр:Эмилис Веливис



В ролях: Михаил Евланов, Дмитрий Лавров (III), Юрий Цурило, Роман Мадянов, Игорь Арташонов, Андрей Финягин, Светлана Устинова, Анна Попова, Евгений Атарик, Иван Шмаков, Александр Кузнецов, Юрий Архангельский, Юлия Такшина, Геннадий Венгеров





Описание:Игорь Романов и Павел Грошев когда-то давно были друзьями, а сейчас оказались по разные стороны баррикад. Романов работает на крупного наркоторговца, а Грошев – опер в Госнаркоконтроле. Случайная встреча оказывается для обоих роковой. Грошев срывает Романову криминальную сделку на три миллионов долларов, но взять бывшего друга с поличным ему не удаётся. В итоге, наркотики и деньги бесследно пропадают, а Романов, тяжело раненный в голову, полностью теряет память. Наркоторговцы подозревают Романова в том, что это он украл наркотики и деньги. Грошева отстраняют от службы и обвиняют в превышении полномочий и попытке убить бывшего друга. Куда делся груз и деньги? Кто хочет убить Романова? И на кого он на самом деле работает? Бывшим друзьям, оказавшимся вне закона, приходится объединить усилия, чтобы ответить на эти вопросы.







Качество: SATRip-AVC
Формат: MKV
Видео кодек: H.264
Аудио кодек: AC3
Видео: MPEG-4 AVC, 720х400,25fps,~1706 Кбит/сек,Bits/Pixel 0.237
Аудио: AC3, 48 kHz, ~192 Kbps, 2 канала



Общее
Уникальный идентификатор : 179404535612293557691887305339084025029 (0x86F80E85D26873F59930CC0B11752CC5)
Полное имя : G:\Человек без прошлого\Человек без прошлого_01 серия rip by_Aleksan55.mkv
Формат : Matroska
Версия формата : Version 2
Размер файла : 600 Мбайт
Продолжительность : 44 м.
Общий поток : 1900 Кбит/сек
Дата кодирования : UTC 2016-02-08 16:47:43
Программа кодирования : mkvmerge v7.8.0 ('River Man') 32bit built on Apr 3 2015 12:11:22
Библиотека кодирования : libebml v1.3.1 + libmatroska v1.4.2

Видео
Идентификатор : 1
Формат : AVC
Формат/Информация : Advanced Video Codec
Профиль формата : High@L4.1
Параметр CABAC формата : Да
Параметр ReFrames формата : 9 кадров
Идентификатор кодека : V_MPEG4/ISO/AVC
Продолжительность : 44 м.
Битрейт : 1706 Кбит/сек
Ширина : 720 пикселей
Высота : 400 пикселей
Соотношение сторон : 1,85:1
Режим частоты кадров : Постоянный
Частота кадров : 25,000 кадров/сек
Цветовое пространство : YUV
Субдискретизация насыщенности : 4:2:0
Битовая глубина : 8 бит
Тип развёртки : Прогрессивная
Бит/(Пиксели*Кадры) : 0.237
Размер потока : 528 Мбайт (88%)
Библиотека кодирования : x264 core 146 r2538 121396c
Настройки программы : cabac=1 / ref=9 / deblock=1:-3:-3 / analyse=0x3:0x113 / me=umh / subme=9 / psy=1 / psy_rd=1.00:0.25 / mixed_ref=0 / me_range=32 / chroma_me=1 / trellis=2 / 8x8dct=1 / cqm=0 / deadzone=21,11 / fast_pskip=1 / chroma_qp_offset=-4 / threads=2 / lookahead_threads=4 / sliced_threads=0 / nr=0 / decimate=1 / interlaced=0 / bluray_compat=0 / constrained_intra=0 / bframes=9 / b_pyramid=2 / b_adapt=1 / b_bias=0 / direct=3 / weightb=1 / open_gop=0 / weightp=2 / keyint=250 / keyint_min=25 / scenecut=40 / intra_refresh=0 / rc_lookahead=40 / rc=2pass / mbtree=1 / bitrate=1706 / ratetol=1.0 / qcomp=0.60 / qpmin=0 / qpmax=69 / qpstep=4 / cplxblur=20.0 / qblur=0.5 / ip_ratio=1.40 / aq=1:1.00
Default : Да
Forced : Нет
Цветовой диапазон : Limited
Основные цвета : BT.601 PAL
Характеристики трансфера : BT.470 System B, BT.470 System G
Коэффициенты матрицы : BT.601

Аудио
Идентификатор : 2
Формат : AC-3
Формат/Информация : Audio Coding 3
Расширение режима : CM (complete main)
Параметр Endianness формата : Big
Идентификатор кодека : A_AC3
Продолжительность : 44 м.
Вид битрейта : Постоянный
Битрейт : 192 Кбит/сек
Каналы : 2 канала
Расположение каналов : Front: L R
Частота : 48,0 КГц
Метод сжатия : С потерями
Размер потока : 60,7 Мбайт (10%)
Default : Да
Forced : Нет
Внимание! Раздача ведётся путём добавления новых серий; при каждом добавлении создаётся новый торрент.
Чтобы начать докачку новой серии, пользователям необходимо сделать следующее:
1. Остановить скачивание;
2. Удалить старый торрент у себя из клиента (старые серии удалять не надо);
3. Скачать новый торрент и запустить его у себя в клиенте вместо старого, при этом указать клиенту путь в старую папку куда и должно происходить скачивание новых серий. Ваш клиент при этом должен произвести хеширование (проверку) старой папки и будет докачивать только те серии, которых у вас ещё нет. Старые серии при этом не удаляются, а продолжают раздаваться! Eсли вы уже удалили старые серии, то предотвратить повторную закачку старых серий можно, отжав галочку в соответствующих местах при запуске нового торрента.


Рекламы нет.Добавлена 15-16 серия.pb.wtf



Скачать Человек без прошлого через торрент http://x-lines.ru/icp/ghW121/074c92/0/28/RCelovekPbezPproSlogo.png Скачать фильм Человек без прошлого через торрент бесплантно в хорошем качестве Описание:Игорь Романов и Павел Грошев когда-то давно были друзьями, а сейчас оказались по разные стороны баррикад. Романов работает на ... 9.3 10 16
Info! Золотая раздача, скачанное не засчитывается.
Торрент: Зарегистрирован [2016-02-18 17:56] · скачан: 251 раз
Статус: √ проверено
Размер: 9.38 GB
Как cкачать? Как скачать Человек без прошлого через торрент | qTorrent

28-11-2019 20:33  

Отключить всю рекламу на сайте

    Дорогой пользователь! Огромная просьба, поблагодарите релизера, оцените раздачу и оставьте свои комментарий, если Вы скачали Человек без прошлого через торрент бесплатно! Внесите свою лепту в развитие PiratBit!
    Комментировать посты могут только пользователи прошедшие не сложную регистрацию
    Показать сообщения:    

    Человек без прошлого через торрент
    Скачать бесплатно Человек без прошлого
    Человек без прошлого скачать торрент
    Человек без прошлого смотреть онлайн
    Cкачать фильм Человек без прошлого бесплатно
    Человек без прошлого скачать торрент в хорошем качестве
    Человек без прошлого смотреть онлайн бесплатно в хорошем качестве


    Вы не можете начинать темы
    Вы не можете отвечать на сообщения
    Вы не можете редактировать свои сообщения
    Вы не можете удалять свои сообщения
    Вы не можете голосовать в опросах
    Вы не можете прикреплять файлы к сообщениям
    Вы можете скачивать файлы