Ссылка на приватное зеркало всего за 1$. Внимание количество ограничено!!!

OK

1+1

iTunes

мы

OK

1

WEB-DLRip

Джокер

Пифагор

Ведьмак / The Witcher сериал

iTunes

ПШазам

ОК

Оно 2

iTunes

30
pack

Вам бонус

ВАЖНО

!!Акция!!

Alien_RageХит недели

RePack

Resident Evil 21

ИГРА 18+

pack

RePack

jed

RePack

fifa19

RePack

Assassins Creed: Odyssey

RePack

NEED FOR SPEED™ PAYBACK

4 сезон

9 сезон

Бесстыжие 9 сезон

Все сериалы

все сериалы на PB.wtf

RePack

FAR CRY 5
  

Подарок / The Gift (Джоэл Эдгертон) [2015 г., триллер, детектив, HDRip, Дубляж "НТВ+"] pb.wtf

Подарок через торрент pb.wtf

Размер: 701 MB | Добавлен: 3 года 11 мес. назад | Торрент скачан:180 раз
Скачать  

08-02-2016 18:27 Подарок Скачать торрент  

Подарок / The Gift
Год выпуска: 2015
Страна: Австралия, США / Blue-Tongue Films, Blumhouse Productions
Жанр: триллер, детектив
Продолжительность: 1:48:11
Перевод: Дубляж (НТВ+)

Режиссер: Джоэл Эдгертон

IMDB 7.20 (51 016)


В ролях: Джейсон Бейтман, Ребекка Холл, Джоэл Эдгертон, Эллисон Толман, Тим Гриффин, Бизи Филиппс, Адам Лазарр-Уайт, Бо Напп, Уенделл Пирс, Мирра Фолкс

Описание: В жизнь Саймона врывается человек из далекого прошлого — его бывший одноклассник Гордо. Человек дружелюбный, немного неуклюжий, но с большими странностями. До встречи с одноклассником Саймон и его молодая супруга Робин считали свою жизнь идеальной, однако Гордо вносит в жизнь молодоженов свои коррективы.

Качество: HDRip
Формат: AVI
Видео кодек: XviD
Аудио кодек: MP3
Видео: MPEG4, XviD, 640x272 (2.35:1), 23.976 fps, 769 Kbps (0.184 bit/pixel)
Аудио: MP3, 48.0 KHz, 2 ch, 128 Kbps, CBR

скриншот   скриншот   скриншот   скриншот   скриншот   скриншот  

Общее
Полное имя : F:\кино\Подарок.2015.D.HDRip.700MB.avi
Формат : AVI
Формат/Информация : Audio Video Interleave
Размер файла : 701 Мбайт
Продолжительность : 1 ч. 48 м.
Общий поток : 906 Кбит/сек
Программа кодирования : VirtualDubMod 1.5.10.3 | www.virtualdub-fr.org || (build 2550/release)
Библиотека кодирования : VirtualDubMod build 2550/release

Видео
Идентификатор : 0
Формат : MPEG-4 Visual
Профиль формата : Advanced Simple@L5
Параметр BVOP формата : 2
Параметр QPel формата : Нет
Параметр GMC формата : Без точки перехода
Параметр матрицы формата : Default (H.263)
Идентификатор кодека : XVID
Идентификатор кодека/Подсказка : XviD
Продолжительность : 1 ч. 48 м.
Битрейт : 769 Кбит/сек
Ширина : 640 пикселей
Высота : 272 пикселя
Соотношение сторон : 2,35:1
Частота кадров : 23,976 (23976/1000) кадра/сек
Цветовое пространство : YUV
Субдискретизация насыщенности : 4:2:0
Битовая глубина : 8 бит
Тип развёртки : Прогрессивная
Метод сжатия : С потерями
Бит/(Пиксели*Кадры) : 0.184
Размер потока : 595 Мбайт (85%)
Библиотека кодирования : XviD 1.2.1 (UTC 2008-12-04)

Аудио
Идентификатор : 1
Формат : MPEG Audio
Версия формата : Version 1
Профиль формата : Layer 3
Режим : Joint stereo
Идентификатор кодека : 55
Идентификатор кодека/Подсказка : MP3
Продолжительность : 1 ч. 48 м.
Вид битрейта : Постоянный
Битрейт : 128 Кбит/сек
Каналы : 2 канала
Частота : 48,0 КГц
Метод сжатия : С потерями
Размер потока : 99,1 Мбайт (14%)
Выравнивание : Соединение по промежуткам
Продолжительность промежутка : 42 мс. (1,00 видеокадр)
Время предзагрузки промежутка : 504 мс.
Библиотека кодирования : LAME3.99r
Настройки программы : -m j -V 4 -q 2 -lowpass 17 -b 128

pb.wtf



Скачать Подарок через торрент http://pic.kartinco.top/images/11/be6hl.jpg Скачать фильм Подарок через торрент бесплантно в хорошем качестве Описание: В жизнь Саймона врывается человек из далекого прошлого — его бывший одноклассник Гордо. Человек дружелюбный, немного неуклюжий, ... 8.7 10 7
Торрент: Зарегистрирован [2016-02-08 18:27] · скачан: 180 раз
Статус: √ проверено
Размер: 701 MB
Как cкачать? Как скачать Подарок через торрент | qTorrent

% Раздел Тема Автор DL S | L
Гонзо [ 1.99 GB ] The Gift of Anal 3 / Анальный Подарок 3 [2019 All Sex Anal WEB-DL] Venom Скачать
1 | 0
Гонзо [ 1.58 GB ] Анальный Подарок 2 / The Gift of Anal 2 [2019 All Sex Anal Oral Gonzo Facial Couples Fantasies WEB-DLRip] sheker187 Скачать
4 | 0
Гонзо [ 1.73 GB ] Анальный Подарок / The Gift of Anal [2018 All Sex Anal Oral Gonzo Facial Couples DP Fantasies WEB-DL 480p] Split Scenes sheker187 Скачать
1 | 0
Фильмы [HD 720p, 1080p] (Хороший звук DUB, MVO) [ 6.28 GB ] Подарок / The Gift [2015 BDRip 1080p от еnvy / NNNB] DUB / RUS Transfer / еnvy Скачать
11 | 0
Фильмы 2015 [DVDrip, WEB-DLRip, HDrip] [ 2.15 GB ] Подарок / The Gift [2015 HDRip BD RUS] coc900 Скачать
2 | 0
Фильмы 2015 [DVDrip, WEB-DLRip, HDrip] [ 1.46 GB ] Подарок / The Gift [2015 BDRip] - [] Twi7ter Скачать
2 | 0
Фильмы (Blu-ray, BD-Remux, HDDVD) [ 19.52 GB ] Подарок / The Gift [2015 Blu-Ray 1080p] RUS Transfer / / Russian Mafia Скачать
1 | 0

28-11-2019 20:33  

Отключить всю рекламу на сайте

08-02-2016 20:45 Подарок Скачать торрент  

Говорят не плохое кинцо, заценим.pb.wtf



08-02-2016 20:52 Подарок Скачать торрент  

Недавно смотрел, хорошее кино, я бы сказал поучительное.pb.wtf



    Дорогой пользователь! Огромная просьба, поблагодарите релизера, оцените раздачу и оставьте свои комментарий, если Вы скачали Подарок через торрент бесплатно! Внесите свою лепту в развитие PiratBit!
    Комментировать посты могут только пользователи прошедшие не сложную регистрацию
    Показать сообщения:    

    Подарок через торрент
    Скачать бесплатно Подарок
    Подарок скачать торрент
    Подарок смотреть онлайн
    Cкачать фильм Подарок бесплатно
    Подарок скачать торрент в хорошем качестве
    Подарок смотреть онлайн бесплатно в хорошем качестве


    Вы не можете начинать темы
    Вы не можете отвечать на сообщения
    Вы не можете редактировать свои сообщения
    Вы не можете удалять свои сообщения
    Вы не можете голосовать в опросах
    Вы не можете прикреплять файлы к сообщениям
    Вы можете скачивать файлы