Ссылка на приватное зеркало нашего сайта всего за 1$. Внимание количество ограничено!!!

2 сезон

iTunes

1 сезон

1

2 сезон

2 сезон

iTunes

1 сезон

RePack

30

Ultimate

ВАЖНО

ИГРА 18+

pack

RePack

MK11
pack

Забери бонус

RePack

jed

!!Акция!!

Alien_Rage

RePack

fifa19

RePack

Assassins Creed: Odyssey

RePack

NEED FOR SPEED™ PAYBACK

4 сезон

9 сезон

Бесстыжие 9 сезон

Все сериалы

все сериалы на PB.wtf

RePack

FAR CRY 5
  

Легенды Крыма. Последний приют генерала (ООО "ЭсКаСи") [2015 г., документальный, военный, история, DVB, Русский] pb.wtf

Легенды Крыма. Последний приют генерала через торрент pb.wtf

Размер: 557 MB | Добавлен: 4 года 9 мес. назад | Торрент скачан:44 раза
Скачать  

09-02-2016 06:21 Легенды Крыма. Последний приют генерала Скачать торрент  

Легенды Крыма. Последний приют генерала

Год выпуска: 2015
Страна: Россия
Жанр: документальный, военный, история
Продолжительность: 00:25:54
Перевод: Не требуется Русский

Режиссер: ООО "ЭсКаСи"

Описание: Эта серия повествует о событиях в Крыму во время Гражданской войны. Один из эпизодов - тайна захоронения "белого" генерала царской армии Михаила Дроздовского, как показательный пример духа того времени. В годы Гражданской войны на территории Крыма несколько раз сменили друг друга "белые" и "красные" правительства. После поражения Белого движения в октябре 1920 Крым был завоёван Красной армией и включён в состав РСФСР как Автономная Крымская Советская Социалистическая Республика.

Качество: DVB
Формат: TS
Видео кодек: AVC
Аудио кодек: MP2
Видео: AVC, 720x576 (16:9), 25.000 fps, 2 662 Kbps (0.257 bit/pixel)
Аудио: MP2, 48.0 KHz, 2 ch, 192 Kbps, CBR

Код:

Формат                                   : MPEG-TS
Размер файла                             : 557 Мбайт
Продолжительность                        : 25 м.
Режим общего битрейта                    : Переменный
Общий поток                              : 3004 Кбит/сек

Видео
Идентификатор                            : 301 (0x12D)
Идентификатор меню                       : 1 (0x1)
Формат                                   : AVC
Формат/Информация                        : Advanced Video Codec
Профиль формата                          : Main@L3
Параметр CABAC формата                   : Да
Параметр ReFrames формата                : 3 кадра
Идентификатор кодека                     : 27
Продолжительность                        : 25 м.
Битрейт                                  : 2662 Кбит/сек
Ширина                                   : 720 пикселей
Высота                                   : 576 пикселей
Соотношение сторон                       : 16:9
Частота кадров                           : 25,000 кадров/сек
Стандарт вещания                         : Component
Цветовое пространство                    : YUV
Субдискретизация насыщенности            : 4:2:0
Битовая глубина                          : 8 бит
Тип развёртки                            : Чересстрочная
Метод сохранения типа развёртки          : Раздельные поля
Порядок развёртки                        : Верхнее поле первое
Бит/(Пиксели*Кадры)                      : 0.257
Размер потока                            : 493 Мбайт (89%)
Цветовой диапазон                        : Limited
Основные цвета                           : BT.601 PAL
Характеристики трансфера                 : BT.470 System B, BT.470 System G
Коэффициенты матрицы                     : BT.601

Аудио
Идентификатор                            : 302 (0x12E)
Идентификатор меню                       : 1 (0x1)
Формат                                   : MPEG Audio
Версия формата                           : Version 1
Профиль формата                          : Layer 2
Идентификатор кодека                     : 3
Продолжительность                        : 25 м.
Вид битрейта                             : Постоянный
Битрейт                                  : 192 Кбит/сек
Каналы                                   : 2 канала
Частота                                  : 48,0 КГц
Метод сжатия                             : С потерями
Размер потока                            : 35,6 Мбайт (6%)

pb.wtf



Скачать Легенды Крыма. Последний приют генерала через торрент http://i.imgur.com/fj7qFxL.png Скачать фильм Легенды Крыма. Последний приют генерала через торрент бесплантно в хорошем качестве Описание: Эта серия повествует о событиях в Крыму во время Гражданской войны. Один из эпизодов - тайна захоронения "белого" генерала ... 5.8 10 6
Торрент: Зарегистрирован [2016-02-09 06:21] · скачан: 44 раз
Статус: √ проверено
Размер: 557 MB
Как cкачать? Как скачать Легенды Крыма. Последний приют генерала через торрент | qTorrent

28-11-2019 20:33  

Отключить всю рекламу на сайте

    Дорогой пользователь! Огромная просьба, поблагодарите релизера, оцените раздачу и оставьте свои комментарий, если Вы скачали Легенды Крыма. Последний приют генерала через торрент бесплатно! Внесите свою лепту в развитие PiratBit!
    Комментировать посты могут только пользователи прошедшие не сложную регистрацию
    Показать сообщения:    

    Легенды Крыма. Последний приют генерала через торрент
    Скачать бесплатно Легенды Крыма. Последний приют генерала
    Легенды Крыма. Последний приют генерала скачать торрент
    Легенды Крыма. Последний приют генерала смотреть онлайн
    Cкачать фильм Легенды Крыма. Последний приют генерала бесплатно
    Легенды Крыма. Последний приют генерала скачать торрент в хорошем качестве
    Легенды Крыма. Последний приют генерала смотреть онлайн бесплатно в хорошем качестве


    Вы не можете начинать темы
    Вы не можете отвечать на сообщения
    Вы не можете редактировать свои сообщения
    Вы не можете удалять свои сообщения
    Вы не можете голосовать в опросах
    Вы не можете прикреплять файлы к сообщениям
    Вы можете скачивать файлы