Ссылка на приватное зеркало всего за 1$. Внимание количество ограничено!!!

iTunes

iTunes

iTunes

1

iTunes

iTunes

iTunes

WEBRip

iTunes

30
pack

$ от Little Big

ВАЖНО

!!Акция!!

Alien_RageХит недели

RePack

Resident Evil 21

ИГРА 18+

pack

RePack

jed

!!Акция!!

Alien_Rage

RePack

fifa19

RePack

Assassins Creed: Odyssey

RePack

NEED FOR SPEED™ PAYBACK

4 сезон

9 сезон

Бесстыжие 9 сезон

Все сериалы

все сериалы на PB.wtf

RePack

FAR CRY 5
  

Медленный Запад / Строго на запад / Slow West (Джон Маклин / John Maclean) [2015, вестерн, драма, триллер, BDRip-AVC от potroks] Dub [iTunes] pb.wtf

Медленный Запад через торрент pb.wtf

Размер: 1.42 GB | Добавлен: 4 года 5 мес. назад | Торрент скачан:1062 раза
Скачать  

09-02-2016 06:39 Медленный Запад Скачать торрент  

Медленный Запад / Строго на запад / Slow West
«Wanted dead or dead»
Год выпуска: 2015
Страна: Великобритания, Новая Зеландия / DMC Film, Film4, New Zealand Film Commission...
Жанр: вестерн, драма, триллер
Продолжительность: 01:23:05
Перевод: Дубляж [iTunes]
Субтитры: русские
Навигация по главам: есть
Режиссер: Джон Маклин / John Maclean
В ролях:

Коди Смит-МакФи (Jay Cavendish), Майкл Фассбендер (Silas Selleck), Бен Мендельсон (Payne), Аорере Паки (Young Native Boy), Хейден Фрост (Young Soldier 1), Карен Писториус (Rose Ross), Киран Чернок (Young Soldier 2), Эдвин Райт (Victor the Hawk), Джозеф Пасси (Congolese Singer 1), Эндрю Робертт (Werner), Сэм Манзанза (Congolese Singer 2), Таванда Маниймо (Congolese Singer 3)
Описание: История авантюриста по имени Сайлас, сопровождающего в опасном путешествии вдоль всей американской границы 16-летнего паренька по имени Джей Кавендиш. Джей разыскивает девушку, в которую влюблен.
Они пересеклись случайно, одинокий волк, отбившийся от волчьей стаи и заяц, оказавшийся в волчьем логове. Он мог дать ему умереть, мог убить, но не вцепился в горло, а пошёл с ним по следу, помогая найти затаившуюся где-то любовь, провожая через поля ненависти и леса страха, твёрдо, не решив, что делать дальше с ним и с собой.

Качество: BDRip-AVC
Формат: MKV
Видео кодек: AVC
Аудио кодек: AC3
Видео: 960x578 (1.661), 2068 kbps, 24 fps, 0,155 bit/pixel
Аудио: AC3 / 5.1 / 48 kHz / 384 kbps / 16 bit

Релиз группы:
Автор рипа: potroks

Код:

Общее
Уникальный идентификатор : 200740544942603186776004129908543607717 (0x970538FFF7BB15F2918E5180561253A5)
Полное имя : Strogo.na.Zapad.2015.RUS.BDRip.x264.-HELLYWOOD.mkv
Формат : Matroska
Версия формата : Version 4 / Version 2
Размер файла : 1,42 Гбайт
Продолжительность : 1 ч. 23 м.
Общий поток : 2450 Кбит/сек
Название фильма : Slow West (2015) - HELLYWOOD
Дата кодирования : UTC 2016-02-09 06:02:27
Программа кодирования : mkvmerge v5.9.0 ('On The Loose') built on Dec 15 2012 16:39:58
Библиотека кодирования : libebml v1.3.0 + libmatroska v1.4.0

Видео
Идентификатор : 1
Формат : AVC
Формат/Информация : Advanced Video Codec
Профиль формата : High@L4.1
Параметр CABAC формата : Да
Параметр ReFrames формата : 12 кадров
Идентификатор кодека : V_MPEG4/ISO/AVC
Продолжительность : 1 ч. 23 м.
Битрейт : 2068 Кбит/сек
Ширина : 960 пикселей
Высота : 578 пикселей
Соотношение сторон : 5:3
Режим частоты кадров : Постоянный
Частота кадров : 24,000 кадра/сек
Цветовое пространство : YUV
Субдискретизация насыщенности : 4:2:0
Битовая глубина : 8 бит
Тип развёртки : Прогрессивная
Бит/(Пиксели*Кадры) : 0.155
Размер потока : 1,17 Гбайт (82%)
Заголовок : potroks
Библиотека кодирования : x264 core 146 r2538 121396c
Настройки программы : cabac=1 / ref=12 / deblock=1:-2:-2 / analyse=0x3:0x113 / me=umh / subme=11 / psy=1 / psy_rd=1.03:0.15 / mixed_ref=1 / me_range=48 / chroma_me=1 / trellis=2 / 8x8dct=1 / cqm=0 / deadzone=21,11 / fast_pskip=0 / chroma_qp_offset=-3 / threads=9 / lookahead_threads=2 / sliced_threads=0 / nr=0 / decimate=0 / interlaced=0 / bluray_compat=0 / constrained_intra=0 / bframes=13 / b_pyramid=2 / b_adapt=2 / b_bias=0 / direct=3 / weightb=1 / open_gop=0 / weightp=2 / keyint=240 / keyint_min=23 / scenecut=40 / intra_refresh=0 / rc_lookahead=60 / rc=2pass / mbtree=0 / bitrate=2068 / ratetol=1.0 / qcomp=0.70 / qpmin=0 / qpmax=69 / qpstep=4 / cplxblur=20.0 / qblur=0.5 / vbv_maxrate=14000 / vbv_bufsize=14000 / nal_hrd=none / filler=0 / ip_ratio=1.35 / pb_ratio=1.25 / aq=1:0.80
Язык : English
Default : Да
Forced : Нет

Аудио
Идентификатор : 2
Формат : AC-3
Формат/Информация : Audio Coding 3
Расширение режима : CM (complete main)
Параметр Endianness формата : Big
Идентификатор кодека : A_AC3
Продолжительность : 1 ч. 23 м.
Вид битрейта : Постоянный
Битрейт : 384 Кбит/сек
Каналы : 6 каналов
Расположение каналов : Front: L C R, Side: L R, LFE
Частота : 48,0 КГц
Метод сжатия : С потерями
Размер потока : 228 Мбайт (16%)
Заголовок : Dub | DD 5.1 @ 384 kbps - iTunes
Язык : Russian
Default : Да
Forced : Нет

Текст
Идентификатор : 3
Формат : UTF-8
Идентификатор кодека : S_TEXT/UTF8
Идентификатор кодека/Информация : UTF-8 Plain Text
Заголовок : Translation: er45ty
Язык : Russian
Default : Нет
Forced : Нет

Меню
00:00:00.000 : en:(01)00:00:00:000
00:09:32.125 : en:(02)00:09:32:125
00:19:12.290 : en:(03)00:19:12:290
00:29:05.875 : en:(04)00:29:05:875
00:37:45.125 : en:(05)00:37:45:125
00:46:56.083 : en:(06)00:46:56:083
00:59:06.416 : en:(07)00:59:06:416
01:09:57.082 : en:(08)01:09:57:082
01:18:22.666 : en:(09)01:18:22:666

pb.wtf



Скачать Медленный Запад через торрент http://i74.fastpic.ru/big/2016/0207/fb/092d7146f5cf00c1f31adf764f6996fb.png Скачать фильм Медленный Запад через торрент бесплантно в хорошем качестве Описание: История авантюриста по имени Сайлас, сопровождающего в опасном путешествии вдоль всей американской границы 16-летнего паренька ... 8.5 10 14
Info! Золотая раздача, скачанное не засчитывается.
Торрент: Зарегистрирован [2016-02-09 06:39] · скачан: 1 062 раз
Статус: √ проверено
Размер: 1.42 GB
Как cкачать? Как скачать Медленный Запад через торрент | qTorrent

% Раздел Тема Автор DL S | L
Фильмы 2015 [DVDrip, WEB-DLRip, HDrip] [ 1.46 GB ] Строго на запад / Медленный Запад / Slow West [2015 BDRip] DUB Twi7ter Скачать
1 | 0
Фильмы 2015 [DVDrip, WEB-DLRip, HDrip] [ 2.14 GB ] Медленный Запад / Строго на запад / Slow West [2015 BDRip-AVC] Dub potroks Скачать
1 | 0
Фильмы 2015 [DVDrip, WEB-DLRip, HDrip] [ 1.42 GB ] Строго на запад / Медленный Запад / Slow West [2015 BDRip] Dub Twi7ter Скачать
1 | 0
Фильмы [HD 720p, 1080p] (Хороший звук DUB, MVO) [ 8.27 GB ] Медленный Запад / Строго на запад / Slow West [2015 BDRip 1080p DUB ] Ворон Скачать
1 | 0

28-11-2019 20:33  

Отключить всю рекламу на сайте

09-02-2016 08:47 Медленный Запад Скачать торрент  

Рожа у пацана какая-то гейская,кирпича просит.pb.wtf



09-02-2016 10:49 Медленный Запад Скачать торрент  

Таргитай писал(а):

Рожа у пацана какая-то гейская,кирпича просит.

pb.wtf



09-02-2016 19:22 Медленный Запад Скачать торрент  

фильм нормpb.wtf



09-02-2016 20:04 Медленный Запад Скачать торрент  

Приличный фильм поглазеть можно разочек.pb.wtf



10-02-2016 17:30 Медленный Запад Скачать торрент  

Так себе фильм, скушный! Автору спасибоpb.wtf



11-02-2016 08:48 Медленный Запад Скачать торрент  

да, как сказали выше фильм нудноват, посмотрел с полчасика потом на перемотке и удалил )))pb.wtf



12-02-2016 14:00 Медленный Запад Скачать торрент  

Таргитай писал(а):

Рожа у пацана какая-то гейская,кирпича просит.

pb.wtf



13-02-2016 05:25 Медленный Запад Скачать торрент  

Фильм на троечку, скучноватый pb.wtf



21-02-2016 16:00 Медленный Запад Скачать торрент  

забавный финалpb.wtf



23-02-2016 12:27 Медленный Запад Скачать торрент  

Рожа у пацана какая-то гейская,кирпича просит.
pb.wtf



    Дорогой пользователь! Огромная просьба, поблагодарите релизера, оцените раздачу и оставьте свои комментарий, если Вы скачали Медленный Запад через торрент бесплатно! Внесите свою лепту в развитие PiratBit!
    Комментировать посты могут только пользователи прошедшие не сложную регистрацию
    Показать сообщения:    

    Медленный Запад через торрент
    Скачать бесплатно Медленный Запад
    Медленный Запад скачать торрент
    Медленный Запад смотреть онлайн
    Cкачать фильм Медленный Запад бесплатно
    Медленный Запад скачать торрент в хорошем качестве
    Медленный Запад смотреть онлайн бесплатно в хорошем качестве


    Вы не можете начинать темы
    Вы не можете отвечать на сообщения
    Вы не можете редактировать свои сообщения
    Вы не можете удалять свои сообщения
    Вы не можете голосовать в опросах
    Вы не можете прикреплять файлы к сообщениям
    Вы можете скачивать файлы