MEGA NEWS Получи личный уникальный адрес сайта и защити себя от блокировок. Внимание количество ограничено!!!

iTunes

1+1

iTunes

мы

iTunes

1

iTunes

Чернобыль

iTunes

Ральф против интернета

Лицензия

ПШазам

Лицензия

Игра престолов

Лицензия

30
pack

ВАЖНО

!!Акция!!

Alien_RageХит недели

RePack

Resident Evil 21

ИГРА 18+

pack

RePack

Metro:Exodus

!!Акция!!

Alien_Rage

RePack

fifa19

RePack

Assassins Creed: Odyssey

RePack

NEED FOR SPEED™ PAYBACK

3 сезон

9 сезон

Бесстыжие 9 сезон

Все сериалы

все сериалы на PB.wtf

RePack

FAR CRY 5
Ребята, катастрофически не хватает 1900р. для оплаты серверов за АВГУСТ (всвязи с блокировками трафик упал в 3 раза), 1-2р., выручайте.
  

Шарада / Charade (Стэнли Донен) [1963, триллер, комедия, мелодрама, детектив, BDRip AVC by msltel] 5 x MVO, DVO, AVO pb.wtf

Шарада через торрент pb.wtf

Размер: 3.35 GB | Добавлен: 3 года 8 мес. назад | Торрент скачан:24 раза
Скачать  

09-02-2016 13:44 Шарада Скачать торрент  

Название: Шарада
Оригинальное название: Charade
Год выпуска: 1963
Страна: США
Жанр: триллер, комедия, мелодрама, детектив
Продолжительность: 01:53:36
Перевод: профессиональный многоголосый, профессиональный двухголосый, авторский

Режиссёр: Стэнли Донен

В ролях: Кэри Грант, Одри Хепбёрн, Уолтер Мэттау, Джеймс Коберн, Джордж Кеннеди, Доминик Мино, Нед Глэсс, Жак Марен, Поль Бонифас

Описание: Очаровательная американка Регги Ламберт, подав на развод, уезжает на курорт, где знакомится с привлекательным незнакомцем Питером Джошуа. По возвращению в Париж её ждёт ужасная новость: муж убит при загадочных обстоятельствах, а все семейные сбережения сняты с банковского счета и исчезли в неизвестном направлении. И вот в жизни героини во второй раз (случайно ли?) появляется недавний знакомый под другим именем, а за ним целая толпа «однополчан» покойного супруга, жаждущих заполучить кругленькую сумму, которую благоверный украл во время Второй мировой войны. Все преследователи уверены, что она-то уж точно знает о местонахождении злосчастного наследства. По мере того, как охотники за «военным трофеем» начинают погибать один за другим, Регине становится всё сложней разобраться, кому она может доверять...



Качество: BDRip AVC Сравнение с исходником
Формат: MKV
Видео: MPEG-4 AVC, 2682 Кбит/с, 1024x554, 23,976 кадра/с
Аудио 1: русский, AC3, 256 kbps, 2 ch, 48 kHz [профессиональный многоголосый, Film Prestige]
Аудио 2: русский, AC3, 192 kbps, 2 ch, 48 kHz [профессиональный двухголосый, HTB+]
Аудио 3: русский, AC3, 128 kbps, 1 ch, 48 kHz [авторский, Антон Алексеев]

Внешние файлы
Аудио: русский, AC3, 192 kbps, 2 ch, 48 kHz [профессиональный многоголосый, CTC]
Аудио: русский, AC3, 192 kbps, 1 ch, 48 kHz [профессиональный многоголосый, DVD Магия]
Аудио: русский, AC3, 192 kbps, 2 ch, 48 kHz [профессиональный многоголосый, OPT]
Аудио: русский, AC3, 192 kbps, 2 ch, 48 kHz [профессиональный многоголосый, ТВЦ]
Аудио: английский, AC3, 192 kbps, 1 ch, 48 kHz [оригинал]
Субтитры: русские
Субтитры: английские
Общее
Уникальный идентификатор : 189980332275129344306908920158907901755 (0x8EECE18E48B1398E9D1188C1366DA73B)
Полное имя : D:\Video\Шарада.1963.BDRip.AVC\Шарада.1963.BDRip.AVC.mkv
Формат : Matroska
Версия формата : Version 4 / Version 2
Размер файла : 2,59 Гбайт
Продолжительность : 1 ч. 53 м.
Общий поток : 3260 Кбит/сек
Дата кодирования : UTC 2016-02-09 12:39:25
Программа кодирования : mkvmerge v8.2.0 ('World of Adventure') 64bit
Библиотека кодирования : libebml v1.3.1 + libmatroska v1.4.2

Видео
Идентификатор : 1
Формат : AVC
Формат/Информация : Advanced Video Codec
Профиль формата : High@L4.1
Параметр CABAC формата : Да
Параметр ReFrames формата : 9 кадров
Идентификатор кодека : V_MPEG4/ISO/AVC
Продолжительность : 1 ч. 53 м.
Битрейт : 2682 Кбит/сек
Ширина : 1024 пикселя
Высота : 554 пикселя
Соотношение сторон : 1,85:1
Режим частоты кадров : Постоянный
Частота кадров : 23,976 (24000/1001) кадра/сек
Цветовое пространство : YUV
Субдискретизация насыщенности : 4:2:0
Битовая глубина : 8 бит
Тип развёртки : Прогрессивная
Бит/(Пиксели*Кадры) : 0.197
Размер потока : 2,13 Гбайт (82%)
Библиотека кодирования : x264 core 146 r2538 121396c
Настройки программы : cabac=1 / ref=9 / deblock=1:-3:-3 / analyse=0x3:0x113 / me=umh / subme=10 / psy=1 / psy_rd=1.00:0.15 / mixed_ref=1 / me_range=32 / chroma_me=1 / trellis=2 / 8x8dct=1 / cqm=0 / deadzone=21,11 / fast_pskip=1 / chroma_qp_offset=-3 / threads=6 / lookahead_threads=1 / sliced_threads=0 / nr=0 / decimate=1 / interlaced=0 / bluray_compat=0 / constrained_intra=0 / bframes=12 / b_pyramid=2 / b_adapt=2 / b_bias=0 / direct=1 / weightb=1 / open_gop=0 / weightp=2 / keyint=230 / keyint_min=23 / scenecut=40 / intra_refresh=0 / rc_lookahead=40 / rc=crf / mbtree=0 / crf=21.0 / qcomp=0.60 / qpmin=0 / qpmax=69 / qpstep=4 / vbv_maxrate=40000 / vbv_bufsize=50000 / crf_max=0.0 / nal_hrd=none / filler=0 / ip_ratio=1.40 / pb_ratio=1.30 / aq=1:1.00
Язык : English
Default : Да
Forced : Нет

Аудио #1
Идентификатор : 2
Формат : AC-3
Формат/Информация : Audio Coding 3
Профиль формата : Dolby Digital
Расширение режима : CM (complete main)
Параметр Endianness формата : Big
Идентификатор кодека : A_AC3
Продолжительность : 1 ч. 53 м.
Вид битрейта : Постоянный
Битрейт : 256 Кбит/сек
Каналы : 2 канала
Расположение каналов : Front: L R
Частота : 48,0 КГц
Частота кадров : 31,250 кадров/сек (1536 spf)
Метод сжатия : С потерями
Размер потока : 208 Мбайт (8%)
Заголовок : MVO (Film Prestige)
Язык : Russian
Default : Да
Forced : Нет

Аудио #2
Идентификатор : 3
Формат : AC-3
Формат/Информация : Audio Coding 3
Расширение режима : CM (complete main)
Параметр Endianness формата : Big
Идентификатор кодека : A_AC3
Продолжительность : 1 ч. 53 м.
Вид битрейта : Постоянный
Битрейт : 192 Кбит/сек
Каналы : 2 канала
Расположение каналов : Front: L R
Частота : 48,0 КГц
Частота кадров : 31,250 кадров/сек (1536 spf)
Метод сжатия : С потерями
Размер потока : 156 Мбайт (6%)
Заголовок : DVO (HTB+)
Язык : Russian
Default : Нет
Forced : Нет

Аудио #3
Идентификатор : 4
Формат : AC-3
Формат/Информация : Audio Coding 3
Расширение режима : CM (complete main)
Параметр Endianness формата : Big
Идентификатор кодека : A_AC3
Продолжительность : 1 ч. 53 м.
Вид битрейта : Постоянный
Битрейт : 128 Кбит/сек
Каналы : 1 канал
Расположение каналов : Front: C
Частота : 48,0 КГц
Частота кадров : 31,250 кадров/сек (1536 spf)
Метод сжатия : С потерями
Размер потока : 104 Мбайт (4%)
Заголовок : AVO (Антон Алексеев)
Язык : Russian
Default : Нет
Forced : Нет

Общее
Полное имя : D:\Video\Шарада.1963.BDRip.AVC\Шарада.1963.eng.srt
Формат : SubRip
Размер файла : 111 Кбайт

Текст
Формат : SubRip
Метод сжатия : Без потерь

Общее
Полное имя : D:\Video\Шарада.1963.BDRip.AVC\Шарада.1963.MVO.rus.CTC.ac3
Формат : AC-3
Формат/Информация : Audio Coding 3
Размер файла : 156 Мбайт
Продолжительность : 1 ч. 53 м.
Режим общего битрейта : Постоянный
Общий поток : 192 Кбит/сек

Аудио
Формат : AC-3
Формат/Информация : Audio Coding 3
Расширение режима : CM (complete main)
Параметр Endianness формата : Big
Продолжительность : 1 ч. 53 м.
Вид битрейта : Постоянный
Битрейт : 192 Кбит/сек
Каналы : 2 канала
Расположение каналов : Front: L R
Частота : 48,0 КГц
Частота кадров : 31,250 кадров/сек (1536 spf)
Метод сжатия : С потерями
Размер потока : 156 Мбайт (100%)

Общее
Полное имя : D:\Video\Шарада.1963.BDRip.AVC\Шарада.1963.MVO.rus.DVD Магия.ac3
Формат : AC-3
Формат/Информация : Audio Coding 3
Размер файла : 156 Мбайт
Продолжительность : 1 ч. 53 м.
Режим общего битрейта : Постоянный
Общий поток : 192 Кбит/сек

Аудио
Формат : AC-3
Формат/Информация : Audio Coding 3
Расширение режима : CM (complete main)
Параметр Endianness формата : Big
Продолжительность : 1 ч. 53 м.
Вид битрейта : Постоянный
Битрейт : 192 Кбит/сек
Каналы : 1 канал
Расположение каналов : Front: C
Частота : 48,0 КГц
Частота кадров : 31,250 кадров/сек (1536 spf)
Метод сжатия : С потерями
Размер потока : 156 Мбайт (100%)

Общее
Полное имя : D:\Video\Шарада.1963.BDRip.AVC\Шарада.1963.MVO.rus.OPT.ac3
Формат : AC-3
Формат/Информация : Audio Coding 3
Размер файла : 156 Мбайт
Продолжительность : 1 ч. 53 м.
Режим общего битрейта : Постоянный
Общий поток : 192 Кбит/сек

Аудио
Формат : AC-3
Формат/Информация : Audio Coding 3
Расширение режима : CM (complete main)
Параметр Endianness формата : Big
Продолжительность : 1 ч. 53 м.
Вид битрейта : Постоянный
Битрейт : 192 Кбит/сек
Каналы : 2 канала
Расположение каналов : Front: L R
Частота : 48,0 КГц
Частота кадров : 31,250 кадров/сек (1536 spf)
Метод сжатия : С потерями
Размер потока : 156 Мбайт (100%)

Общее
Полное имя : D:\Video\Шарада.1963.BDRip.AVC\Шарада.1963.MVO.rus.ТВЦ.ac3
Формат : AC-3
Формат/Информация : Audio Coding 3
Размер файла : 156 Мбайт
Продолжительность : 1 ч. 53 м.
Режим общего битрейта : Постоянный
Общий поток : 192 Кбит/сек

Аудио
Формат : AC-3
Формат/Информация : Audio Coding 3
Расширение режима : CM (complete main)
Параметр Endianness формата : Big
Продолжительность : 1 ч. 53 м.
Вид битрейта : Постоянный
Битрейт : 192 Кбит/сек
Каналы : 2 канала
Расположение каналов : Front: L R
Частота : 48,0 КГц
Частота кадров : 31,250 кадров/сек (1536 spf)
Метод сжатия : С потерями
Размер потока : 156 Мбайт (100%)

Общее
Полное имя : D:\Video\Шарада.1963.BDRip.AVC\Шарада.1963.Original.eng.ac3
Формат : AC-3
Формат/Информация : Audio Coding 3
Размер файла : 156 Мбайт
Продолжительность : 1 ч. 53 м.
Режим общего битрейта : Постоянный
Общий поток : 192 Кбит/сек

Аудио
Формат : AC-3
Формат/Информация : Audio Coding 3
Расширение режима : CM (complete main)
Параметр Endianness формата : Big
Продолжительность : 1 ч. 53 м.
Вид битрейта : Постоянный
Битрейт : 192 Кбит/сек
Каналы : 1 канал
Расположение каналов : Front: C
Частота : 48,0 КГц
Частота кадров : 31,250 кадров/сек (1536 spf)
Метод сжатия : С потерями
Размер потока : 156 Мбайт (100%)

Общее
Полное имя : D:\Video\Шарада.1963.BDRip.AVC\Шарада.1963.rus.srt
Размер файла : 154 Кбайт
pb.wtf



Скачать Шарада через торрент http://s020.radikal.ru/i704/1602/65/dfc08434f6ae.jpg Скачать фильм Шарада через торрент бесплантно в хорошем качестве Описание: Очаровательная американка Регги Ламберт, подав на развод, уезжает на курорт, где знакомится с привлекательным незнакомцем Питером ... 10 10 1
Info! Золотая раздача, скачанное не засчитывается.
Торрент: Зарегистрирован [2016-02-09 13:44] · скачан: 24 раз
Статус: √ проверено
Размер: 3.35 GB
Как cкачать? Как скачать Шарада через торрент | qTorrent

% Раздел Тема Автор DL S | L
Классика зарубежного кино [ 14.36 GB ] Шарада / Charade [1963 BDRip 1080p by msltel] 5 x MVO DVO AVO msltel Скачать
1 | 0
Классика зарубежного кино [ 5.94 GB ] Шарада / Charade [1963 BDRip 720p by msltel] 5 x MVO DVO AVO msltel Скачать
1 | 0


>> Регистрируемся здесь <<






Отзывы и комментарии о схеме читаем и пишем здесь: ---> Отзывы и комментарии о схеме

Новые благодарочки в телеграм довольных пользователей:
скриншот   скриншот   скриншот   скриншот   скриншот
    Дорогой пользователь! Огромная просьба, поблагодарите релизера, оцените раздачу и оставьте свои комментарий, если Вы скачали Шарада через торрент бесплатно! Внесите свою лепту в развитие PiratBit!
    Комментировать посты могут только пользователи прошедшие не сложную регистрацию
    Показать сообщения:    

    Шарада через торрент
    Скачать бесплатно Шарада
    Шарада скачать торрент
    Шарада смотреть онлайн
    Cкачать фильм Шарада бесплатно
    Шарада скачать торрент в хорошем качестве
    Шарада смотреть онлайн бесплатно в хорошем качестве


    Вы не можете начинать темы
    Вы не можете отвечать на сообщения
    Вы не можете редактировать свои сообщения
    Вы не можете удалять свои сообщения
    Вы не можете голосовать в опросах
    Вы не можете прикреплять файлы к сообщениям
    Вы можете скачивать файлы