Ссылка на приватное зеркало всего за 1$. Внимание количество ограничено!!!

OK

1+1

iTunes

мы

OK

1

WEB-DLRip

Джокер

Пифагор

Ведьмак / The Witcher сериал

iTunes

ПШазам

ОК

Оно 2

iTunes

30
pack

Вам бонус

ВАЖНО

!!Акция!!

Alien_RageХит недели

RePack

Resident Evil 21

ИГРА 18+

pack

RePack

jed

RePack

fifa19

RePack

Assassins Creed: Odyssey

RePack

NEED FOR SPEED™ PAYBACK

4 сезон

9 сезон

Бесстыжие 9 сезон

Все сериалы

все сериалы на PB.wtf

RePack

FAR CRY 5
  

Бабушка / Grandma (Пол Вайц) [2015 г., драма, комедия, HDRip, Профессиональный многоголосый закадровый "iTunes"] pb.wtf

Бабушка через торрент pb.wtf

Размер: 701 MB | Добавлен: 3 года 11 мес. назад | Торрент скачан:171 раз
Скачать  

09-02-2016 18:22 Бабушка Скачать торрент  

Бабушка / Grandma
Год выпуска: 2015
Страна: США / Depth of Field, 1821 Pictures
Жанр: драма, комедия
Продолжительность: 01:18:44
Перевод: Профессиональный многоголосый закадровый (iTunes)

Режиссер: Пол Вайц

IMDB 7.10 (1692)


В ролях: Лили Томлин, Джулия Гарнер, Марша Гей Харден, Джуди Грир, Лаверн Кокс, Элизабет Пенья, Нат Вулф, Сара Бёрнс, Джон Чо, Сэм Эллиотт

Описание: Девушка-подросток сталкивается с незапланированной беременностью и отправляется за помощью к своей бабушке, которая давно отдалилась от своей дочери...

Качество: HDRip
Формат: AVI
Видео кодек: XviD
Аудио кодек: MP3
Видео: MPEG4, XviD, 640x344 (1.860), 23.976 fps, 1 108 Kbps (0.210 bit/pixel)
Аудио: MP3, 48.0 KHz, 2 ch, 128 Kbps, CBR
скриншот   скриншот   скриншот   скриншот   скриншот   скриншот  

Общее
Полное имя : F:\кино\Бабушка.2015.HDRip.700mb.avi
Формат : AVI
Формат/Информация : Audio Video Interleave
Размер файла : 701 Мбайт
Продолжительность : 1 ч. 18 м.
Общий поток : 1245 Кбит/сек
Программа кодирования : VirtualDubMod 1.5.10.3 | www.virtualdub-fr.org || (build 2550/release)
Библиотека кодирования : VirtualDubMod build 2550/release

Видео
Идентификатор : 0
Формат : MPEG-4 Visual
Профиль формата : Advanced Simple@L5
Параметр BVOP формата : 2
Параметр QPel формата : Нет
Параметр GMC формата : Без точки перехода
Параметр матрицы формата : Default (H.263)
Идентификатор кодека : XVID
Идентификатор кодека/Подсказка : XviD
Продолжительность : 1 ч. 18 м.
Битрейт : 1108 Кбит/сек
Ширина : 640 пикселей
Высота : 344 пикселя
Соотношение сторон : 1,85:1
Частота кадров : 23,976 (23976/1000) кадра/сек
Цветовое пространство : YUV
Субдискретизация насыщенности : 4:2:0
Битовая глубина : 8 бит
Тип развёртки : Прогрессивная
Метод сжатия : С потерями
Бит/(Пиксели*Кадры) : 0.210
Размер потока : 624 Мбайт (89%)
Библиотека кодирования : XviD 1.2.1 (UTC 2008-12-04)

Аудио
Идентификатор : 1
Формат : MPEG Audio
Версия формата : Version 1
Профиль формата : Layer 3
Режим : Joint stereo
Расширение режима : MS Stereo
Идентификатор кодека : 55
Идентификатор кодека/Подсказка : MP3
Продолжительность : 1 ч. 18 м.
Вид битрейта : Постоянный
Битрейт : 128 Кбит/сек
Каналы : 2 канала
Частота : 48,0 КГц
Метод сжатия : С потерями
Размер потока : 72,1 Мбайт (10%)
Выравнивание : Соединение по промежуткам
Продолжительность промежутка : 42 мс. (1,00 видеокадр)
Время предзагрузки промежутка : 504 мс.
Библиотека кодирования : LAME3.99r
Настройки программы : -m j -V 4 -q 2 -lowpass 17 -b 128

pb.wtf



Скачать Бабушка через торрент http://pic.kartinco.top/images/11/x7imc.jpg Скачать фильм Бабушка через торрент бесплантно в хорошем качестве Описание: Девушка-подросток сталкивается с незапланированной беременностью и отправляется за помощью к своей бабушке, которая давно ... 9.8 10 10
Торрент: Зарегистрирован [2016-02-09 18:22] · скачан: 171 раз
Статус: √ проверено
Размер: 701 MB
Как cкачать? Как скачать Бабушка через торрент | qTorrent

% Раздел Тема Автор DL S | L
Фильмы [HD 720p, 1080p] (Хороший звук DUB, MVO) [ 3.65 GB ] Бабушка / Grandma [2015 BDRip 720p by msltel] MVO msltel Скачать
1 | 0
Фильмы [HD 720p, 1080p] (Хороший звук DUB, MVO) [ 10.36 GB ] Бабушка / Grandma [2015 BDRip 1080p by msltel] MVO msltel Скачать
1 | 0
Порно фильмы HD [ 713 MB ] Мама и Бабушка Часть 1 - Мамы 1-й анал / Me Mom And Granny Part 1- Mom's 1st Anal Fuck [2016 Incest MILF Mature Grandma Mom Mother Son Grandson Blowjob Big Tits Daughter Family HD 720p Оригинальный] DJASFUL Скачать
1 | 0
Порно фильмы HD [ 869 MB ] Мама и Бабушка Часть 2 - Мамы 1-й анал / Me Mom And Granny Part 2 - Mom's 1st Anal Fuck [2016 Incest MILF Mature Mom Mother Son Grandson Grandma Family Threesome Lesbian Orgy Anal Creampie HD 720p Оригиналь DJASFUL Скачать
1 | 0
Фильмы [HD 720p, 1080p] (Хороший звук DUB, MVO) [ 4.63 GB ] Бабушка / Grandma [2015 BDRip 720p] MVO Ворон Скачать
1 | 0
Паки сайтрипов [ 4.12 GB ] Крепкие бабушки / Beautiful Oldies In Hardcore Action [2006 Mature Older Grandmas Hardcore Anal Oral All Sex SATRip Оригинал] Magnat Скачать
1 | 0
Этнические порно фильмы [ 1.18 GB ] Моя бабушка любит черный член # 2 / My Grandma Loves Black Cock # 2 [2013 Big DicksOlderAll sexAnalFacialCreampie DVDRip Оригинал] 19alexei87 Скачать
1 | 0

28-11-2019 20:33  

Отключить всю рекламу на сайте

    Дорогой пользователь! Огромная просьба, поблагодарите релизера, оцените раздачу и оставьте свои комментарий, если Вы скачали Бабушка через торрент бесплатно! Внесите свою лепту в развитие PiratBit!
    Комментировать посты могут только пользователи прошедшие не сложную регистрацию
    Показать сообщения:    

    Бабушка через торрент
    Скачать бесплатно Бабушка
    Бабушка скачать торрент
    Бабушка смотреть онлайн
    Cкачать фильм Бабушка бесплатно
    Бабушка скачать торрент в хорошем качестве
    Бабушка смотреть онлайн бесплатно в хорошем качестве


    Вы не можете начинать темы
    Вы не можете отвечать на сообщения
    Вы не можете редактировать свои сообщения
    Вы не можете удалять свои сообщения
    Вы не можете голосовать в опросах
    Вы не можете прикреплять файлы к сообщениям
    Вы можете скачивать файлы