Ссылка на приватное зеркало нашего сайта всего за 1$. Внимание количество ограничено!!!

2 сезон

iTunes

1 сезон

1

iTunes

iTunes

iTunes

1 сезон

RePack

30

ИГРА 18+

pack

ВАЖНО

!!Акция!!

Alien_RageХит недели

RePack

MK11
pack

Забери бонус

RePack

jed

!!Акция!!

Alien_Rage

RePack

fifa19

RePack

Assassins Creed: Odyssey

RePack

NEED FOR SPEED™ PAYBACK

4 сезон

9 сезон

Бесстыжие 9 сезон

Все сериалы

все сериалы на PB.wtf

RePack

FAR CRY 5
  

Спасение / Extraction (Стивен С. Миллер) [2015, триллер, BDRip 720p, Дубляж] iTunes, MVO pb.wtf

Спасение через торрент pb.wtf

Размер: 4.7 GB | Добавлен: 4 года 8 мес. назад | Торрент скачан:128 раз
Скачать  

09-02-2016 22:26 Спасение Скачать торрент  

• Спасение / Extraction •
Год выпуска » 2015
Страна » Aperture Entertainment, Emmett/Furla Films, Oasis Films, Twirly Films Limiteds
Жанр » Триллер
Продолжительность » 01:22:45
Перевод » Дублированный [iTunes]; Любительский многоголосый [Paradox & Omskbird records]
Субтитры » Английские

В ролях
» Брюс Уиллис, Келлан Латс, Джина Карано, Д.Б. Суини, Джошуа Микель, Стив Култер, Ден Билзерян, Хезер Йохансен, Роберт Мартин Стейнберг, Саммер Элтис

Режиссёр
» Стивен С. Миллер
ОПИСАНИЕ:
» Группа террористов похищает бывшего оперативного агента ЦРУ, чтобы использовать его в своих корыстных целях. Не дождавшись помощи от правительства, его сын начинает собственную операцию по спасению отца и возвращению его домой...
• Качество » BDRip (720p)
• Формат » mkv
• Видео кодек » MPEG-4 AVC
• Аудио кодек » AC3/ DTS
• Видео » 6085 Кбит/с, 1280x720, 23,976 кадра/сек
• Аудио » Дублированный [iTunes] (AC-3 / 48,0 КГц / 6 ch / 384 kbps /16 bit )
• Аудио » Любительский многоголосый (закадровый) [Paradox & Omskbird records] (AC-3 / 48,0 КГц / 2 ch / 192 kbps /16 bit )
• Аудио » Английский:Оригинал (DTS / 48,0 КГц / 6 ch / 1510 kbps / 16 bit)


Общее
Уникальный идентификатор : 213672225843051161975838362770292804088 (0xA0BFC617FC77EE2B9E591F843FB309F8)
Полное имя : F:\CIIACEHUE..2015.LIMITED.BDRip.720p.mkv
Формат : Matroska
Версия формата : Version 4 / Version 2
Размер файла : 4,70 Гбайт
Продолжительность : 1 ч. 22 м.
Общий поток : 8176 Кбит/сек
Название фильма : CIIACEHUE..2015.LIMITED.BDRip.720p
Дата кодирования : UTC 2016-02-09 10:32:06
Программа кодирования : mkvmerge v8.3.0 ('Over the Horizon') 64bit
Библиотека кодирования : libebml v1.3.1 + libmatroska v1.4.2
DURATION : 01:17:10.110000000
NUMBER_OF_FRAMES : 848
NUMBER_OF_BYTES : 2586564
_STATISTICS_WRITING_APP : mkvmerge v8.3.0 ('Over the Horizon') 64bit
_STATISTICS_WRITING_DATE_UTC : 2016-02-09 10:32:06
_STATISTICS_TAGS : BPS DURATION NUMBER_OF_FRAMES NUMBER_OF_BYTES

Видео
Идентификатор : 1
Формат : AVC
Формат/Информация : Advanced Video Codec
Профиль формата : High@L4.1
Параметр CABAC формата : Да
Параметр ReFrames формата : 5 кадров
Идентификатор кодека : V_MPEG4/ISO/AVC
Продолжительность : 1 ч. 22 м.
Битрейт : 6085 Кбит/сек
Ширина : 1280 пикселей
Высота : 720 пикселей
Соотношение сторон : 16:9
Режим частоты кадров : Постоянный
Частота кадров : 23,976 кадра/сек
Цветовое пространство : YUV
Субдискретизация насыщенности : 4:2:0
Битовая глубина : 8 бит
Тип развёртки : Прогрессивная
Бит/(Пиксели*Кадры) : 0.275
Размер потока : 3,41 Гбайт (73%)
Библиотека кодирования : x264 core 148 r2665 a01e339
Настройки программы : cabac=1 / ref=5 / deblock=1:0:0 / analyse=0x3:0x133 / me=umh / subme=7 / psy=1 / psy_rd=1.00:0.00 / mixed_ref=1 / me_range=16 / chroma_me=1 / trellis=1 / 8x8dct=1 / cqm=0 / deadzone=21,11 / fast_pskip=0 / chroma_qp_offset=-2 / threads=12 / lookahead_threads=2 / sliced_threads=0 / nr=0 / decimate=1 / interlaced=0 / bluray_compat=0 / constrained_intra=0 / bframes=3 / b_pyramid=2 / b_adapt=1 / b_bias=0 / direct=1 / weightb=1 / open_gop=0 / weightp=2 / keyint=250 / keyint_min=23 / scenecut=40 / intra_refresh=0 / rc_lookahead=40 / rc=2pass / mbtree=1 / bitrate=6085 / ratetol=1.0 / qcomp=0.60 / qpmin=0 / qpmax=69 / qpstep=4 / cplxblur=20.0 / qblur=0.5 / ip_ratio=1.40 / aq=1:1.00
Язык : English
Default : Да
Forced : Нет
DURATION : 01:22:22.946000000
NUMBER_OF_FRAMES : 118512
NUMBER_OF_BYTES : 3756729685
_STATISTICS_WRITING_APP : mkvmerge v8.3.0 ('Over the Horizon') 64bit
_STATISTICS_WRITING_DATE_UTC : 2016-02-09 10:32:06
_STATISTICS_TAGS : BPS DURATION NUMBER_OF_FRAMES NUMBER_OF_BYTES

Аудио #1
Идентификатор : 2
Формат : AC-3
Формат/Информация : Audio Coding 3
Расширение режима : CM (complete main)
Параметр Endianness формата : Big
Идентификатор кодека : A_AC3
Продолжительность : 1 ч. 22 м.
Вид битрейта : Постоянный
Битрейт : 384 Кбит/сек
Каналы : 6 каналов
Расположение каналов : Front: L C R, Side: L R, LFE
Частота : 48,0 КГц
Битовая глубина : 16 бит
Метод сжатия : С потерями
Размер потока : 226 Мбайт (5%)
Заголовок : DUB [iTunes]
Язык : Russian
Default : Да
Forced : Нет

Аудио #2
Идентификатор : 3
Формат : AC-3
Формат/Информация : Audio Coding 3
Расширение режима : CM (complete main)
Параметр Endianness формата : Big
Идентификатор кодека : A_AC3
Продолжительность : 1 ч. 22 м.
Вид битрейта : Постоянный
Битрейт : 192 Кбит/сек
Каналы : 2 канала
Расположение каналов : Front: L R
Частота : 48,0 КГц
Битовая глубина : 16 бит
Метод сжатия : С потерями
Размер потока : 113 Мбайт (2%)
Заголовок : ПМ
Язык : Russian
Default : Нет
Forced : Нет

Аудио #3
Идентификатор : 4
Формат : DTS
Формат/Информация : Digital Theater Systems
Режим : 16
Параметр Endianness формата : Big
Идентификатор кодека : A_DTS
Продолжительность : 1 ч. 22 м.
Вид битрейта : Постоянный
Битрейт : 1509 Кбит/сек
Каналы : 6 каналов
Расположение каналов : Front: L C R, Side: L R, LFE
Частота : 48,0 КГц
Битовая глубина : 24 бит
Метод сжатия : С потерями
Размер потока : 889 Мбайт (18%)
Заголовок : Original
Язык : English
Default : Нет
Forced : Нет

Текст #1
Идентификатор : 5
Формат : VobSub
Режим смешивания : zlib
Идентификатор кодека : S_VOBSUB
Идентификатор кодека/Информация : The same subtitle format used on DVDs
Язык : English
Default : Нет
Forced : Нет

Текст #2
Идентификатор : 6
Формат : VobSub
Режим смешивания : zlib
Идентификатор кодека : S_VOBSUB
Идентификатор кодека/Информация : The same subtitle format used on DVDs
Язык : English
Default : Нет
Forced : Нет

Меню
00:00:00.000 : en:00:00:00.000
00:08:22.419 : en:00:08:22.419
00:10:11.903 : en:00:10:11.903
00:15:34.100 : en:00:15:34.100
00:22:12.581 : en:00:22:12.581
00:27:31.859 : en:00:27:31.859
00:32:59.686 : en:00:32:59.686
00:38:20.465 : en:00:38:20.465
00:42:50.109 : en:00:42:50.109
00:48:30.407 : en:00:48:30.407
00:52:02.036 : en:00:52:02.036
00:54:57.044 : en:00:54:57.044
01:00:14.277 : en:01:00:14.277
01:04:38.500 : en:01:04:38.500
01:07:11.361 : en:01:07:11.361
01:16:44.391 : en:01:16:44.391
скриншот   скриншот   скриншот   скриншот  
pb.wtf



Скачать Спасение через торрент http://pic1.kartinco.top/images/10/bq17n.jpg Скачать фильм Спасение через торрент бесплантно в хорошем качестве ОПИСАНИЕ: » Группа террористов похищает бывшего оперативного агента ЦРУ, чтобы использовать его в своих корыстных целях. Не дождавшись ... 10 10 4
Торрент: Зарегистрирован [2016-02-09 22:26] · скачан: 128 раз
Статус: T временная
Размер: 4.7 GB
Как cкачать? Как скачать Спасение через торрент | qTorrent

% Раздел Тема Автор DL S | L
T Фильмы [HD 720p, 1080p] (Хороший звук DUB, MVO) [ 6.89 GB ] Спасение / Extraction [2015 BDRip 1080p ] MVO $-DRON-$ Скачать
1 | 0

28-11-2019 20:33  

Отключить всю рекламу на сайте

    Дорогой пользователь! Огромная просьба, поблагодарите релизера, оцените раздачу и оставьте свои комментарий, если Вы скачали Спасение через торрент бесплатно! Внесите свою лепту в развитие PiratBit!
    Комментировать посты могут только пользователи прошедшие не сложную регистрацию
    Показать сообщения:    

    Спасение через торрент
    Скачать бесплатно Спасение
    Спасение скачать торрент
    Спасение смотреть онлайн
    Cкачать фильм Спасение бесплатно
    Спасение скачать торрент в хорошем качестве
    Спасение смотреть онлайн бесплатно в хорошем качестве


    Вы не можете начинать темы
    Вы не можете отвечать на сообщения
    Вы не можете редактировать свои сообщения
    Вы не можете удалять свои сообщения
    Вы не можете голосовать в опросах
    Вы не можете прикреплять файлы к сообщениям
    Вы можете скачивать файлы